VIP

  1. Longevity:
    7 years
    Posts:
    2413
    Gender:
    Male
    «Protect the bloodline»- Информация
    Название: Другой мир: Войны крови
    Оригинальное название: Underworld: Blood Wars
    Год выхода: 2016
    Жанр: Ужасы, боевик
    Режиссер: Анна Ферстер
    Сценарий: Кори Гудман, Кайл Уорд, Кевин Гревье
    Продюсер: Дэвид Керн, Гари Лучези, Том Розенберг
    В ролях: Кейт Бекинсейл, Тео Джеймс, Лара Пулвер, Чарльз Дэнс, Тобайас Мензис, Брэдли Джеймс, Алисия Вела-Бэйли, Трент Гарретт, Дэйзи Хэд, Джеймс Фолкнер, Оливер Старк
    --Сюжет:
    И вновь продолжается бой, и сердцу тревожно в груди... Недобитые остатки утонченной аристократии, сосущей кровь из трудового народа, из последних сил держат оборону в каком-то задрипанном поместье, обставленном с безобразной роскошью. Их атакует местная группировка байкеров, борющихся за свое место под солнцем. И тех и других возглавляют новые лидеры взамен старых, изрубленных топором. Все ищут Селин и ее дочь Еву, ведь их кровь позволит любой из сторон получить решающее преимущество в борьбе за передел сфер влияния.
    - Страна: США
    Продолжительность: 01:31:49

    Файл
    Кодек: MPEG4/ISO/AVC H.264
    Формат: MKV
    Качество: BDRip 1080p | 60 fps
    Видео: 1920 x 800 (2.400) | 59.940 fps | 20.0 Мбит/сек
    Аудио 1: AC3 | 5.1 | 48 kHz | 640 kbps | 16 bit | Дубляж |
    Аудио 2: AC3 | 5.1 | 48 kHz | 384 kbps | 16 bit | Авторский - Д. Есарев |
    Аудио 3: DTS-HD MA | 5.1 | 48 kHz | 2354 kbps | 24 bit | ENG |
    Субтитры: Русские, украинские, английские

    MedifInfo

    Видео
    Идентификатор : 1
    Формат : AVC
    Формат/Информация : Advanced Video Codec
    Профиль формата : [email protected]
    Параметр CABAC формата : Да
    Параметр ReFrames формата : 5 кадров
    Идентификатор кодека : V_MPEG4/ISO/AVC
    Продолжительность : 1 ч. 31 м.
    Номинальный битрейт : 20,0 Мбит/сек
    Ширина : 1920 пикселей
    Высота : 800 пикселей
    Соотношение сторон : 2,40:1
    Режим частоты кадров : Постоянный
    Частота кадров : 59,880 кадров/сек
    Частота кадров в оригинале : 59,940 кадров/сек
    Цветовое пространство : YUV
    Субдискретизация насыщенности : 4:2:0
    Битовая глубина : 8 бит
    Тип развёртки : Прогрессивная
    Бит/(Пиксели*Кадры) : 0.217
    Заголовок : www.60-fps.org
    Библиотека кодирования : x264 core 148 r2638 7599210
    Настройки программы : cabac=1 / ref=5 / deblock=1:-3:-3 / analyse=0x3:0x113 / me=umh / subme=8 / psy=1 / psy_rd=1.00:0.25 / mixed_ref=1 / me_range=32 / chroma_me=1 / trellis=1 / 8x8dct=1 / cqm=0 / deadzone=6,6 / fast_pskip=1 / chroma_qp_offset=-4 / threads=12 / lookahead_threads=2 / sliced_threads=0 / nr=0 / decimate=0 / interlaced=0 / bluray_compat=0 / constrained_intra=0 / bframes=3 / b_pyramid=2 / b_adapt=2 / b_bias=0 / direct=3 / weightb=1 / open_gop=0 / weightp=2 / keyint=599 / keyint_min=59 / scenecut=40 / intra_refresh=0 / rc_lookahead=50 / rc=2pass / mbtree=1 / bitrate=19999 / ratetol=1.0 / qcomp=0.80 / qpmin=0 / qpmax=69 / qpstep=4 / cplxblur=20.0 / qblur=0.5 / vbv_maxrate=62500 / vbv_bufsize=78125 / nal_hrd=none / filler=0 / ip_ratio=1.10 / aq=1:0.50
    Default : Да
    Forced : Нет
    Аудио #1
    Идентификатор : 2
    Формат : AC-3
    Формат/Информация : Audio Coding 3
    Расширение режима : CM (complete main)
    Параметр Endianness формата : Big
    Идентификатор кодека : A_AC3
    Продолжительность : 1 ч. 31 м.
    Вид битрейта : Постоянный
    Битрейт : 640 Кбит/сек
    Каналы : 6 каналов
    Расположение каналов : Front: L C R, Side: L R, LFE
    Частота : 48,0 КГц
    Битовая глубина : 16 бит
    Метод сжатия : С потерями
    Размер потока : 419 Мбайт (3%)
    Заголовок : Дубляж
    Язык : Russian
    Default : Да
    Forced : Нет
    Аудио #2
    Идентификатор : 3
    Формат : AC-3
    Формат/Информация : Audio Coding 3
    Расширение режима : CM (complete main)
    Параметр Endianness формата : Big
    Идентификатор кодека : A_AC3
    Продолжительность : 1 ч. 31 м.
    Вид битрейта : Постоянный
    Битрейт : 384 Кбит/сек
    Каналы : 6 каналов
    Расположение каналов : Front: L C R, Side: L R, LFE
    Частота : 48,0 КГц
    Битовая глубина : 16 бит
    Метод сжатия : С потерями
    Размер потока : 251 Мбайт (2%)
    Заголовок : Авторский - Д. Есарев
    Язык : Russian
    Default : Нет
    Forced : Нет
    Аудио #3
    Идентификатор : 4
    Формат : DTS
    Формат/Информация : Digital Theater Systems
    Профиль формата : MA / Core
    Режим : 16
    Параметр Endianness формата : Big
    Идентификатор кодека : A_DTS
    Продолжительность : 1 ч. 31 м.
    Вид битрейта : Переменный
    Битрейт : Неизвестно / 1509 Кбит/сек
    Каналы : 6 каналов
    Расположение каналов : Front: L C R, Side: L R, LFE
    Частота : 48,0 КГц
    Битовая глубина : 16 бит
    Метод сжатия : Без потерь / Lossy
    Заголовок : Original
    Язык : English
    Default : Нет
    Forced : Нет
    Текст #1
    Идентификатор : 5
    Формат : UTF-8
    Идентификатор кодека : S_TEXT/UTF8
    Идентификатор кодека/Информация : UTF-8 Plain Text
    Заголовок : iTunes
    Язык : Russian
    Default : Нет
    Forced : Нет
    Текст #2
    Идентификатор : 6
    Формат : UTF-8
    Идентификатор кодека : S_TEXT/UTF8
    Идентификатор кодека/Информация : UTF-8 Plain Text
    Заголовок : iTunes
    Язык : Ukrainian
    Default : Нет
    Forced : Нет
    Текст #3
    Идентификатор : 7
    Формат : UTF-8
    Идентификатор кодека : S_TEXT/UTF8
    Идентификатор кодека/Информация : UTF-8 Plain Text
    Заголовок : Full
    Язык : English
    Default : Нет
    Forced : Нет
    Меню
    00:00:00.000 : en:00:00:00.000
    00:04:30.479 : en:00:04:30.479
    00:09:25.315 : en:00:09:25.315
    00:13:59.964 : en:00:13:59.964
    00:18:56.010 : en:00:18:56.010
    00:24:27.091 : en:00:24:27.091
    00:31:15.957 : en:00:31:15.957
    00:36:26.810 : en:00:36:26.810
    00:42:17.034 : en:00:42:17.034
    00:47:37.646 : en:00:47:37.646
    00:52:22.181 : en:00:52:22.181
    00:58:59.327 : en:00:58:59.327
    01:04:31.659 : en:01:04:31.659
    01:08:52.128 : en:01:08:52.128
    01:13:47.131 : en:01:13:47.131
    01:20:08.512 : en:01:20:08.512

    Release was prepared by 60-fps.org



You cannot post new topics in this forum
You cannot reply to topics in this forum
You cannot edit your posts in this forum
You cannot delete your posts in this forum
You cannot vote in polls in this forum
You cannot attach files in this forum
You cannot download files in this forum