-Название: Другие
Оригинальное название: The Others
Год выпуска: 2001
Страна: США, Испания, Франция, Италия
Жанр: ужасы, триллер, драма, детектив
Продолжительность: 01:44:36
Перевод: Дубляж
Субтитры: русские (Полные), английские (Полные)-Режиссер: Алехандро Аменабар / Alejandro Amenábar-В ролях: Николь Кидман (Grace Stewart), Фионнула Флэнаган (Mrs. Bertha Mills), Кристофер Экклстон (Charles Stewart), Алакина Манн (Anne Stewart), Джеймс Бентли (Nicholas Stewart), Эрик Сайкс (Mr. Edmund Tuttle), Элейн Кэссиди (Lydia), Рене Эшерсон (Old Lady), Гордон Рид (Assistant), Кит Аллен (Mr. Marlish), Мишель Фэйрли (Mrs. Marlish), Александр Винс (Victor Marlish)-Описание:
Красавица Грейс увозит своих больных детей в особняк на одном из островов у побережья Англии, чтобы дождаться окончания Второй мировой войны. Войны, с которой вернется ее муж.
Ее дочь и сын страдают странным заболеванием: они не выносят прямого дневного света. Когда в доме появляются трое новых слуг, они должны выучить жизненно важное правило: все комнаты всегда должны быть в полумраке, нельзя открывать дверь, пока не заперта предыдущая. Строгому порядку, установленному Грейс, будет брошен вызов. Грейс, дети и те, кто их окружает, сделают решающий, роковой шаг.-Рейтинг

imdb.com: 7.60 (229 089)
MPAA: PG-13 - Детям до 13 лет просмотр не желателен-Автор рипа:Tiberiumsun69
-Качество: BDRip 1080p / 60 FPS
Формат: MKV
Видео кодек: AVC
Аудио кодек:AC3
Видео: AVC, 1920x1080 (16:9), 14000 kbps, 59,940 fps, 0,113 bpp
Аудио №1: русский / AC3 / 5.1 / 48 kHz / 640 kbps / 16 bit |Дубляж|
Аудио №2: русский / AC3 / 5.1 / 48 kHz / 384 kbps / 16 bit |Многоголосый, закадровый|
Аудио №3: английский / AC3 / 5.1 / 48 kHz / 640 kbps / 16 bit
Навигация по главам: есть- -

MI

General
Unique ID : 184197404730434009332753311875763799904 (0x8A932136F5CE5C7F86CA4A82534C0760)
Complete name : A:1080p 60fpsДругие 1080p 60fps.mkv
Format : Matroska
Format version : Version 4 / Version 2
File size : 11.4 GiB
Duration : 1h 44mn
Overall bit rate : 15.7 Mbps
Movie name : R.G. HD-Films by Tiberiumsun69 60fps
Encoded date : UTC 2014-11-15 02:50:18
Writing application : mkvmerge v6.9.1 ('Blue Panther') 64bit built on Apr 18 2014 18:23:38
Writing library : libebml v1.3.0 + libmatroska v1.4.1
Attachment : Yes
Video
ID : 1
Format : AVC
Format/Info : Advanced Video Codec
Format profile : High@L4.1
Format settings, CABAC : Yes
Format settings, ReFrames : 4 frames
Codec ID : V_MPEG4/ISO/AVC
Duration : 1h 44mn
Bit rate : 14.0 Mbps
Width : 1 920 pixels
Height : 1 080 pixels
Display aspect ratio : 16:9
Frame rate : 59.940 fps
Color space : YUV
Chroma subsampling : 4:2:0
Bit depth : 8 bits
Scan type : Progressive
Bits/(Pixel*Frame) : 0.113
Stream size : 10.00 GiB (87%)
Title : R.G. HD-Films by Tiberiumsun69 60fps
Writing library : x264 core 130 r2273 b3065e6
Encoding settings : cabac=1 / ref=4 / deblock=1:-1:-1 / analyse=0x3:0 / me=umh / subme=10 / psy=1 / psy_rd=1.00:0.00 / mixed_ref=1 / me_range=32 / chroma_me=0 / trellis=2 / 8x8dct=1 / cqm=0 / deadzone=21,11 / fast_pskip=0 / chroma_qp_offset=-2 / threads=12 / lookahead_threads=1 / sliced_threads=0 / nr=0 / decimate=0 / interlaced=0 / bluray_compat=0 / constrained_intra=0 / bframes=5 / b_pyramid=2 / b_adapt=2 / b_bias=0 / direct=3 / weightb=1 / open_gop=0 / weightp=2 / keyint=250 / keyint_min=59 / scenecut=40 / intra_refresh=0 / rc_lookahead=60 / rc=2pass / mbtree=1 / bitrate=14000 / ratetol=1.0 / qcomp=0.80 / qpmin=0 / qpmax=69 / qpstep=4 / cplxblur=20.0 / qblur=0.5 / ip_ratio=1.40 / aq=1:0.80
Language : English
Default : Yes
Forced : No
Audio #1
ID : 2
Format : AC-3
Format/Info : Audio Coding 3
Mode extension : CM (complete main)
Codec ID : A_AC3
Duration : 1h 44mn
Bit rate mode : Constant
Bit rate : 640 Kbps
Channel(s) : 6 channels
Channel positions : Front: L C R, Side: L R, LFE
Sampling rate : 48.0 KHz
Bit depth : 16 bits
Compression mode : Lossy
Stream size : 479 MiB (4%)
Title : Дубляж
Language : Russian
Default : Yes
Forced : No
Audio #2
ID : 3
Format : AC-3
Format/Info : Audio Coding 3
Mode extension : CM (complete main)
Codec ID : A_AC3
Duration : 1h 44mn
Bit rate mode : Constant
Bit rate : 384 Kbps
Channel(s) : 6 channels
Channel positions : Front: L C R, Side: L R, LFE
Sampling rate : 48.0 KHz
Bit depth : 16 bits
Compression mode : Lossy
Stream size : 287 MiB (2%)
Title : Многоголосый, закадровый
Language : Russian
Default : No
Forced : No
Audio #3
ID : 4
Format : AC-3
Format/Info : Audio Coding 3
Mode extension : CM (complete main)
Codec ID : A_AC3
Duration : 1h 44mn
Bit rate mode : Constant
Bit rate : 640 Kbps
Channel(s) : 6 channels
Channel positions : Front: L C R, Side: L R, LFE
Sampling rate : 48.0 KHz
Bit depth : 16 bits
Compression mode : Lossy
Stream size : 479 MiB (4%)
Title : Оригинал
Language : English
Default : No
Forced : No
Text #1
ID : 5
Format : UTF-8
Codec ID : S_TEXT/UTF8
Codec ID/Info : UTF-8 Plain Text
Title : Полные
Language : Russian
Default : No
Forced : No
Text #2
ID : 6
Format : UTF-8
Codec ID : S_TEXT/UTF8
Codec ID/Info : UTF-8 Plain Text
Title : Полные
Language : English
Default : No
Forced : No
Menu
00:00:00.000 : :0:00:00.000
00:10:43.041 : :0:10:43.041
00:20:10.958 : :0:20:10.958
00:28:10.125 : :0:28:10.125
00:38:43.625 : :0:38:43.625
00:47:06.375 : :0:47:06.375
00:54:33.500 : :0:54:33.500
01:04:41.958 : :1:04:41.958
01:15:02.625 : :1:15:02.625
01:24:57.166 : :1:24:57.166
01:34:39.833 : :1:34:39.833
01:40:28.041 : :1:40:28.041

Скриншоты

Просьба к переливающим на другие сайты, в оформлении указывайте пожалуйста авторство рипа - Tiberiumsun69


Последний раз редактировалось: bot (2014-11-15 18:37), всего редактировалось 1 раз

[Цитировать]
Владимир 1965

Спасибо за релиз и оперативность

[Цитировать]
Tranch

Да, фильм с детства врезался в память.
 
Показать сообщения:    

Текущее время: 02-Дек 21:11

Часовой пояс: UTC + 3


Вы не можете начинать темы
Вы не можете отвечать на сообщения
Вы не можете редактировать свои сообщения
Вы не можете удалять свои сообщения
Вы не можете голосовать в опросах
Вы не можете прикреплять файлы к сообщениям
Вы не можете скачивать файлы