[Цитировать]
Kryl

«You can walk, you can run, you can limp, You've got to... Drive»- Информация
Название: Драйв
Оригинальное название: Drive
Год выхода: 1997
Жанр: Фантастика, боевик, комедия, приключения
Режиссер: Стив Ванг
Сценарий: Скотт Филлипс
Продюсер: Мицуру Куросава, Майкл Лихи, В.К. Бордер
Роли озвучивали: Марк Дакаскос, Кадим Хардисон, Джон Пайпер-Фергюсон, Бриттани Мерфи, Трейси Уолтер, Джеймс Шигета, Масая Като, Дом Магуили, Рон Йуан ,Клайв Розенгрен
--Сюжет:
Сан-Франциско. Недалекое будущее. Грузовое судно возвращается из Гонконга с загадочным пассажиром по имени Тоби Уонг. Он сбежал от подпольной корпорации Леунга в поисках свободы на Западе.
Однако Тоби попадает в лапы банды хладнокровного Вика Мэдисона. Вырвавшись из банды Мэдисона, он берет в заложники пьяницу Малика Броунди и едет в Лос-Анджелес. В дороге они становятся приятелями, и Тоби даже обучает Малика боевым искусствам. Однажды Малик узнает, что у Тоби имплантирован биомодуль, дающий ему силу и скорость.
Это сделал мистер Лау, глава корпорации Леунг, который хочет вернуть беглеца во что бы то ни стало. Сбежавшую парочку преследует и банда Вика Мэдисона и новая жертва мистер Лау с более совершенным биомодулем…
- - Страна: США
Продолжительность: 01:39:32
-- Файл
Кодек: MPEG4/ISO/AVC H.264
Формат: MKV
Качество: WEBRip 720p (исходник WEBRip)
Видео: 1276x720 | 59.940 fps | 5.0 Мбит/сек
Аудио: AC3 | 5.1 | 48 kHz | 384 kbps | 16 bit | Многоголосый закадровый |

MedifInfo

Video
ID : 1
Format : AVC
Format/Info : Advanced Video Codec
Format profile : High@L4.1
Format settings, CABAC : Yes
Format settings, ReFrames : 9 frames
Codec ID : V_MPEG4/ISO/AVC
Duration : 1h 39mn
Bit rate : 5 052 Kbps
Width : 1 276 pixels
Height : 720 pixels
Display aspect ratio : 16:9
Frame rate mode : Constant
Frame rate : 59.880 fps
Original frame rate : 59.940 fps
Color space : YUV
Chroma subsampling : 4:2:0
Bit depth : 8 bits
Scan type : Progressive
Bits/(Pixel*Frame) : 0.092
Stream size : 3.51 GiB (94%)
Writing library : x264 core 146 r2538 121396c
Encoding settings : cabac=1 / ref=9 / deblock=1:0:0 / analyse=0x3:0x113 / me=umh / subme=10 / psy=1 / psy_rd=1.00:0.00 / mixed_ref=1 / me_range=24 / chroma_me=1 / trellis=2 / 8x8dct=1 / cqm=0 / deadzone=21,11 / fast_pskip=0 / chroma_qp_offset=-2 / threads=12 / lookahead_threads=1 / sliced_threads=0 / nr=0 / decimate=1 / interlaced=0 / bluray_compat=0 / constrained_intra=0 / bframes=5 / b_pyramid=2 / b_adapt=2 / b_bias=0 / direct=3 / weightb=1 / open_gop=0 / weightp=2 / keyint=250 / keyint_min=25 / scenecut=40 / intra_refresh=0 / rc_lookahead=40 / rc=crf / mbtree=0 / crf=18.0 / qcomp=0.60 / qpmin=0 / qpmax=69 / qpstep=4 / vbv_maxrate=14000 / vbv_bufsize=14000 / crf_max=0.0 / nal_hrd=none / filler=0 / ip_ratio=1.40 / pb_ratio=1.30 / aq=3:1.00
Language : English
Default : Yes
Forced : No
Audio
ID : 2
Format : AC-3
Format/Info : Audio Coding 3
Mode extension : CM (complete main)
Format settings, Endianness : Big
Codec ID : A_AC3
Duration : 1h 39mn
Bit rate mode : Constant
Bit rate : 192 Kbps
Channel(s) : 2 channels
Channel positions : Front: L R
Sampling rate : 48.0 KHz
Compression mode : Lossy
Stream size : 137 MiB (4%)
Title : ОРТ
Language : Russian
Default : Yes
Forced : No
 
Показать сообщения:    

Текущее время: 02-Дек 21:06

Часовой пояс: UTC + 3


Вы не можете начинать темы
Вы не можете отвечать на сообщения
Вы не можете редактировать свои сообщения
Вы не можете удалять свои сообщения
Вы не можете голосовать в опросах
Вы не можете прикреплять файлы к сообщениям
Вы не можете скачивать файлы