[Цитировать]
mimok

Драконы: Гонки бесстрашных. Начало / Dragons: Dawn of the Dragon Racers (2014) BDRip 720p | 60fps- Год выпуска: 2014
Производство: США / DreamWorks Animation
Жанр: Мультфильм, комедия, приключения, семейный, короткометражный-Режиссер: Джон Санфорд, Илэйн Боган
Актеры: Джей Барушель, Америка Феррера, Кристофер Минц-Плассе, ТиДжей Миллер, Нолан Норт, Крис Эджерли, Зак Перлман-Описание фильма:
Поиски пропавшей овцы превращаются в соревнование между Иккингом и его друзьями за титул первого чемпиона драконьих гонок Олуха. Это история о расцвете драконьих гонок, и о том, как они стали самым популярным видом спорта на Олухе.
События короткометражки происходят после событий второго сезона сериала "Драконы: Защитники Олуха" и до событий полнометражного фильма "Как приручить дракона 2".-Перевод: Дублированный (Лицензия)
Субтитры: отсутствуют- -Продолжительность: 00:26:38
Качество видео: BDRip 720p-Видеокодек: MPEG-4 AVC/H.264
Битрейт видео: ~ 10,5 Мбит/сек
Размер кадра: 1280 x 720
Аудио: AC3 5.1, 48.0 KHz, 448 Кбит/сек - Русский-MediaInfo:
Общее
Уникальный идентификатор : 250488098317727609841429661352507050229 (0xBC7240BFC6B4F202B09DC53CC30988F5)
Полное имя : D:\Торренты\Dragons. Dawn of the Dragon Racers 60fps.org.mkv
Формат : Matroska
Версия формата : Version 2
Размер файла : 2,04 Гбайт
Продолжительность : 25 м.
Общий поток : 11,2 Мбит/сек
Дата кодирования : UTC 2014-10-21 17:38:03
Программа кодирования : mkvmerge v5.8.0 ('No Sleep / Pillow') built on Sep 2 2012 15:37:04
Библиотека кодирования : libebml v1.2.3 + libmatroska v1.3.0
Видео
Идентификатор : 1
Формат : AVC
Формат/Информация : Advanced Video Codec
Профиль формата : High@L4.1
Параметр CABAC формата : Да
Параметр ReFrames формата : 6 кадров
Идентификатор кодека : V_MPEG4/ISO/AVC
Продолжительность : 25 м.
Битрейт : 10,5 Мбит/сек
Ширина : 1280 пикселей
Высота : 720 пикселей
Соотношение сторон : 16:9
Режим частоты кадров : Постоянный
Частота кадров : 59,880 кадров/сек
Частота кадров в оригинале : 59,940 кадров/сек
Цветовое пространство : YUV
Субдискретизация насыщенности : 4:2:0
Битовая глубина : 8 бит
Тип развёртки : Прогрессивная
Бит/(Пиксели*Кадры) : 0.191
Размер потока : 1,92 Гбайт (94%)
Библиотека кодирования : x264 core 125 r2208 d9d2288
Настройки программы : cabac=1 / ref=6 / deblock=1:1:1 / analyse=0x3:0x133 / me=umh / subme=8 / psy=1 / psy_rd=1.00:0.15 / mixed_ref=1 / me_range=20 / chroma_me=1 / trellis=2 / 8x8dct=1 / cqm=0 / deadzone=21,11 / fast_pskip=0 / chroma_qp_offset=-3 / threads=6 / lookahead_threads=1 / sliced_threads=0 / nr=0 / decimate=0 / interlaced=0 / bluray_compat=0 / constrained_intra=0 / bframes=8 / b_pyramid=2 / b_adapt=2 / b_bias=0 / direct=1 / weightb=1 / open_gop=0 / weightp=2 / keyint=600 / keyint_min=59 / scenecut=40 / intra_refresh=0 / rc=crf / mbtree=0 / crf=17.0 / qcomp=0.63 / qpmin=10 / qpmax=51 / qpstep=4 / ip_ratio=1.40 / pb_ratio=1.30 / aq=1:1.20
Default : Да
Forced : Нет
Аудио
Идентификатор : 2
Формат : AC-3
Формат/Информация : Audio Coding 3
Расширение режима : CM (complete main)
Параметр Endianness формата : Big
Идентификатор кодека : A_AC3
Продолжительность : 25 м.
Вид битрейта : Постоянный
Битрейт : 448 Кбит/сек
Каналы : 6 каналов
Расположение каналов : Front: L C R, Side: L R, LFE
Частота : 48,0 КГц
Битовая глубина : 16 бит
Метод сжатия : С потерями
Размер потока : 83,3 Мбайт (4%)
Default : Да
Forced : Нет
Скринлист:
Скриншоты:
 
Показать сообщения:    

Текущее время: 10-Дек 19:38

Часовой пояс: UTC + 3


Вы не можете начинать темы
Вы не можете отвечать на сообщения
Вы не можете редактировать свои сообщения
Вы не можете удалять свои сообщения
Вы не можете голосовать в опросах
Вы не можете прикреплять файлы к сообщениям
Вы не можете скачивать файлы