[Цитировать]
BOT2

Доспехи Бога 2: Операция Кондор / God's armor 2 Operation Condor Год выпуска: 1991 г.
Жанр: боевик, триллер, комедия, криминал, приключения
Страна: Гонконг
Режиссер: Джеки Чан
Продолжительность: 01:46:29
Перевод: Профессиональный (многоголосый закадровый)-В ролях: Джеки Чан (Jackie Chan), Кэрол «До До» Чэн (Carol «Do Do» Cheng (в титрах: Carol Cheng)), Ева Кобо (Eva Cobo (в титрах: Eva Cobo de Garcia)), Сёко Икэда (Shôko Ikeda), Альдо Самбрель (Aldo Sambrell (в титрах: Alfredo Brel Sánchez)), Кен Гудман (Ken Goodman), Стиви Тарталия (Steve Tartalia (в титрах: Gregory Tartaglia)), Лин Персивал (Lyn Percival (в титрах: Lyn Percival))-Описание: Азиатский Ястреб возвращается! На этот раз ему предстоит новая работа, из-за которой наш герой опять приезжает в Мадрид. Некий загадочный миллионер предлагает Ястребу заняться поисками нацистских сокровищ, которые спрятаны в глубине африканской пустыни. Он передает ключ к сокровищнице, соглашается финансировать экспедицию и отправляет с Ястребом попутчицу — специалиста по Африке Аду.Во время своего пребывания в Мадриде Ястреб знакомится с немецкой девушкой Эльзой, которая разыскивает своего деда, пропавшего во время войны в Африке. После ряда приключений Эльза тоже присоединяется к экспедиции.-Формат видео: MKV
Качество видео: BDRip AVC | 60fps
Видео кодек: AVC
Аудио кодек: AC3
Видео: 1024x432 (2.35:1), 59.940 fps, AVC, 4 555 Kbps
Аудио: AC3, 192 Kbps, 48.0 KHz, 2 ch [Многоголосый, НТВ]- -Релиз by:

Отчёт MediaInfo

General
Complete name : Доспехи бога 2.mkv
Format : Matroska
File size : 3.53 GiB
Duration : 1h 46mn
Overall bit rate : 4 751 Kbps
Encoded date : UTC 2015-05-23 20:21:35
Writing application : mkvmerge v6.1.0 ('Old Devil') built on Mar 4 2013 09:10:42
Writing library : libebml v1.3.0 + libmatroska v1.4.0
Video
ID : 1
Format : AVC
Format/Info : Advanced Video Codec
Format profile : High@L4.1
Format settings, CABAC : Yes
Format settings, ReFrames : 11 frames
Muxing mode : Container profile=Unknown@4.1
Codec ID : V_MPEG4/ISO/AVC
Duration : 1h 46mn
Bit rate : 4 555 Kbps
Width : 1 024 pixels
Height : 432 pixels
Display aspect ratio : 2.35:1
Frame rate : 59.940 fps
Color space : YUV
Chroma subsampling : 4:2:0
Bit depth : 8 bits
Scan type : Progressive
Bits/(Pixel*Frame) : 0.172
Stream size : 3.32 GiB (94%)
Writing library : x264 core 130 r2273 b3065e6
Encoding settings : cabac=1 / ref=11 / deblock=1:0:0 / analyse=0x3:0x113 / me=umh / subme=11 / psy=1 / psy_rd=1.00:0.10 / mixed_ref=1 / me_range=32 / chroma_me=1 / trellis=2 / 8x8dct=1 / cqm=0 / deadzone=21,11 / fast_pskip=0 / chroma_qp_offset=-3 / threads=12 / lookahead_threads=3 / sliced_threads=0 / nr=0 / decimate=1 / interlaced=0 / bluray_compat=0 / constrained_intra=0 / bframes=10 / b_pyramid=2 / b_adapt=2 / b_bias=0 / direct=3 / weightb=1 / open_gop=0 / weightp=2 / keyint=600 / keyint_min=59 / scenecut=40 / intra_refresh=0 / rc_lookahead=60 / rc=2pass / mbtree=1 / bitrate=4555 / ratetol=1.0 / qcomp=0.60 / qpmin=0 / qpmax=69 / qpstep=4 / cplxblur=20.0 / qblur=0.5 / vbv_maxrate=50000 / vbv_bufsize=62500 / nal_hrd=none / ip_ratio=1.40 / aq=1:1.00
Audio
ID : 2
Format : AC-3
Format/Info : Audio Coding 3
Mode extension : CM (complete main)
Codec ID : A_AC3
Duration : 1h 46mn
Bit rate mode : Constant
Bit rate : 192 Kbps
Channel(s) : 2 channels
Channel positions : Front: L R
Sampling rate : 48.0 KHz
Bit depth : 16 bits
Stream size : 146 MiB (4%)

[Цитировать]
vikvit

Ну и где тот который владеет 100%)))

[Цитировать]
Kryl

2695Ну и где тот который владеет 100%)))
У меня качает , правда пока не знаю до 100% процентов дойдет или тормознет ..

[Цитировать]
vikvit

2696
2695Ну и где тот который владеет 100%)))
У меня качает , правда пока не знаю до 100% процентов дойдет или тормознет ..
У меня тоже качало до 97,8%, а потом как танк фиг подвинешь))

[Цитировать]
Tranch

Классная работа +
Спасибо!
 
Показать сообщения:    

Текущее время: 03-Дек 16:39

Часовой пояс: UTC + 3


Вы не можете начинать темы
Вы не можете отвечать на сообщения
Вы не можете редактировать свои сообщения
Вы не можете удалять свои сообщения
Вы не можете голосовать в опросах
Вы не можете прикреплять файлы к сообщениям
Вы не можете скачивать файлы