Агент Ева / Ava (2020) BDRip 1080p | 60 fps Пятый элемент / The Fifth Element (1997) BDRip 1080p | 60 fps Властелин колец: Трилогия / The Lord of the Rings: Trilogy (2001-2003) BDRip-AVC | Extended Cut | 60 fps Форпост / The Outpost (2020) BDRip 1080p | 60 fps Поезд смерти / D-Railed (2018) BDRip 1080p | 60 fps Охота / The Hunt (2020) BDRip 1080p | 60 fps Вивариум / Vivarium (2019) BDRip 720p | 60 fps Ультрафиолет / Ultraviolet (2006) BDRip 1080p | 60 fps
  1. Longevity:
    4 years 6 months
    Posts:
    1575
    Gender:
    Male
    Фильм «Никто не выйдет живым» Фильм- Информация
    Название: Doom
    Оригинальное название: Doom
    Год выхода: 2005
    Жанр: ужасы, фантастика, боевик, приключения
    Режиссер: Анджей Бартковяк
    Сценарий: Дэйв Каллахэм, Уэсли Стрик
    Продюсер: Лоренцо Ди Бонавентура, Джон Уэллс, Лаура Холстейн
    В ролях: Карл Урбан,Розамунд Пайк,Деобиа Опарей,Бен Дэниелс,Разаак Адоти,Ричард Брэйк,Аль Уивер,Декстер Флетчер,Брайан Стил,Дуэйн Джонсон

    Сюжет:
    2145 год. После того, как из далёкой научной лаборатории Олдуай был получен сигнал о помощи, на место ― планету Марс ― прибывает отряд космического спецназа и обнаруживает разгромленную станцию. Вскоре выясняется, что на людей здесь охотятся полчища ужасных существ-мутантов…-- Страна: Великобритания, Чехия, Германия, США
    Продолжительность: 01:52:44

    Файл
    Кодек: MPEG4/ISO/AVC H.264
    Формат: MKV
    Качество: BDRip 720p | 60 fps
    Видео: 1280 x 544 (2.353) | 59.940 fps | 4981 Кбит/сек
    Аудио: AC-3 | 5.1 | 48 kHz | 448 Кбит/сек | 16 bit | Дубляж |
    Субтитры: НЕТ

    MedifInfo

    Видео
    Идентификатор : 0
    Формат : AVC
    Формат/Информация : Advanced Video Codec
    Профиль формата : [email protected]
    Параметр CABAC формата : Нет
    Параметр ReFrames формата : 6 кадров
    Идентификатор кодека : AVC1
    Продолжительность : 1 ч. 52 м.
    Битрейт : 4981 Кбит/сек
    Ширина : 1280 пикселей
    Высота : 544 пикселя
    Соотношение сторон : 2,35:1
    Частота кадров : 61,271 кадров/сек
    Частота кадров в оригинале : 59,940 кадров/сек
    Цветовое пространство : YUV
    Субдискретизация насыщенности : 4:2:0
    Битовая глубина : 8 бит
    Тип развёртки : Прогрессивная
    Бит/(Пиксели*Кадры) : 0.117
    Размер потока : 4,00 Гбайт (92%)
    Библиотека кодирования : x264 core 130 r2273 b3065e6
    Настройки программы : cabac=0 / ref=6 / deblock=0:0:0 / analyse=0:0 / me=umh / subme=9 / psy=1 / psy_rd=1.00:0.10 / mixed_ref=0 / me_range=24 / chroma_me=1 / trellis=2 / 8x8dct=0 / cqm=0 / deadzone=21,11 / fast_pskip=1 / chroma_qp_offset=-3 / threads=3 / lookahead_threads=1 / sliced_threads=0 / nr=0 / decimate=1 / interlaced=0 / bluray_compat=0 / constrained_intra=0 / bframes=6 / b_pyramid=2 / b_adapt=2 / b_bias=0 / direct=3 / weightb=0 / open_gop=0 / weightp=2 / keyint=250 / keyint_min=25 / scenecut=0 / intra_refresh=0 / rc=2pass / mbtree=0 / bitrate=4981 / ratetol=1.0 / qcomp=0.60 / qpmin=0 / qpmax=69 / qpstep=4 / cplxblur=20.0 / qblur=0.5 / ip_ratio=1.40 / pb_ratio=1.30 / aq=0
    Аудио
    Идентификатор : 1
    Формат : AC-3
    Формат/Информация : Audio Coding 3
    Расширение режима : CM (complete main)
    Параметр Endianness формата : Big
    Идентификатор кодека : 2000
    Продолжительность : 1 ч. 52 м.
    Вид битрейта : Постоянный
    Битрейт : 448 Кбит/сек
    Каналы : 6 каналов
    Расположение каналов : Front: L C R, Side: L R, LFE
    Частота : 48,0 КГц
    Частота кадров : 31,250 кадров/сек (1536 spf)
    Битовая глубина : 16 бит
    Метод сжатия : С потерями
    Размер потока : 361 Мбайт (8%)
    Выравнивание : Соединение по промежуткам
    Продолжительность промежутка : 32 мс. (1,96 видеокадра)
    Время предзагрузки промежутка : 512 мс.
  2. Longevity:
    6 years 1 month
    Posts:
    5
    Gender:
    Male
    звука нет что за хрень?
    18-Feb-2017 11:44 (after 12 hours)
  3. Longevity:
    4 years 6 months
    Posts:
    1575
    Gender:
    Male
    igor3176, не знаю,не знаю - у меня всё есть,проверь своё железо.у меня на двух плеерах и на трёх ноутбуках всё работает без проблем... Не слушаю
    18-Feb-2017 14:03 (after 2 hours 19 minutes)
  4. Longevity:
    4 years 3 months
    Posts:
    24
    Gender:
    Male
    Хороший фильмец. кстати не нашёл у вас фильма "Кибер" 2015 года и "Мальчики-налётчики" 2010..
    19-Feb-2017 18:49 (after 1 day 4 hours)
  5. Longevity:
    5 years 1 month
    Posts:
    27
    Gender:
    Male
    Обалденный фильм,пересматриваю уже 6-й раз и каефф от 60 кадров! Огромное спасибо релизеру! Привет
    25-Feb-2017 18:44 (after 5 days)
  6. Longevity:
    4 years 6 months
    Posts:
    1575
    Gender:
    Male
    Ангел я старался... !
    25-Feb-2017 19:02 (after 17 minutes)
  7. Longevity:
    3 years 6 months
    Posts:
    7
    Gender:
    Male
    не могу скачать, никто не раздаёт.
    17-Nov-2018 20:35 (after 1 year 8 months)
  8. Longevity:
    2 years 10 months
    Posts:
    1
    Gender:
    Unknown
    Спасибо за релиз! Пересмотрю - что-то запамятовал его)))))
    11-Dec-2018 13:59 (after 23 days)


You cannot post new topics in this forum
You cannot reply to topics in this forum
You cannot edit your posts in this forum
You cannot delete your posts in this forum
You cannot vote in polls in this forum
You cannot attach files in this forum
You cannot download files in this forum