Тор: Рагнарёк / Thor: Ragnarok (2017) BDRip 1080p | 60 fps Стражи Галактики. Часть 2 / Guardians of the Galaxy Vol. 2 (2017) BDRip 1080p | 60 fps Мстители: Эра Альтрона / Avengers: Age of Ultron (2015) BDRip 1080p | 60 fps Человек-паук: Возвращение домой / Spider-Man: Homecoming (2017) BDRip 1080p | 60 fps Валериан и город тысячи планет / Valerian and the City of a Thousand Planets (2017) BDRip 1080p | 60 fps Доктор Стрэндж / Doctor Strange (2016) BDRip 1080p | 60 fps Пираты Карибского моря: Мертвецы не рассказывают сказки / Pirates of the Caribbean: Dead Men Tell No Tales (2017) BDRip 1080p | 60 fps Аватар / Avatar (2009) BDRip 1080p | 60 fps
  1. Стаж:
    1 год 9 месяцев
    Сообщений:
    459
    Пол:
    Мужской
    Фильм «Страх живёт по соседству» Фильм- Информация
    Название: Дом в конце улицы
    Оригинальное название: House at the End of the Street
    Год выхода: 2011
    Жанр: триллер, ужасы
    Режиссер: Марк Тондерай
    Сценарий: Дэвид Лука, Джонатан Мостоу
    Продюсер: Питер Блок, Хэл Либерман, Аарон Райдер
    В ролях: Дженнифер Лоуренс,Макс Тириот,Элизабет Шу,Джил Беллоуз,Ева Линк,Нолан Джерард Фанк,Элли МакДональд,Джордан Хэйес,Криста Бриджес,Джеймс Томас
    --Сюжет:
    Переехав жить в небольшой провинциальный город, Сара и ее дочь еще не догадываются, что вскоре окажутся в эпицентре ужаса…-- Страна: Канада, США
    Продолжительность: 01:41:46

    Файл
    Кодек: MPEG4/ISO/AVC H.264/High@L4.1
    Формат: MKV
    Качество: BDRip 1080p | 60 fps
    Видео: 1920 x 800 (2.400) | 59.940 fps | 14,7 Мбит/сек
    Аудио 1: DTS| 5.1 | 48 kHz | 1510 Кбит/сек | 16 bit | Профессиональный (дублированный)
    Аудио 2: DTS| 5.1 | 48 kHz | 1509 Кбит/сек | 16 bit | Орегинал
    Субтитры:

    MedifInfo

    Видео
    Идентификатор : 1
    Формат : AVC
    Формат/Информация : Advanced Video Codec
    Профиль формата : High@L4.1
    Параметр CABAC формата : Да
    Параметр ReFrames формата : 4 кадра
    Идентификатор кодека : V_MPEG4/ISO/AVC
    Продолжительность : 1 ч. 41 м.
    Битрейт : 14,7 Мбит/сек
    Ширина : 1920 пикселей
    Высота : 800 пикселей
    Соотношение сторон : 2,40:1
    Режим частоты кадров : Постоянный
    Частота кадров : 59,940 (60000/1001) кадров/сек
    Цветовое пространство : YUV
    Субдискретизация насыщенности : 4:2:0
    Битовая глубина : 8 бит
    Тип развёртки : Прогрессивная
    Бит/(Пиксели*Кадры) : 0.160
    Размер потока : 10,4 Гбайт (83%)
    Заголовок : Талямба: 60-fps.org
    Библиотека кодирования : x264 core 146 r2538 121396c
    Настройки программы : cabac=1 / ref=3 / deblock=1:-3:-3 / analyse=0x3:0x113 / me=hex / subme=7 / psy=1 / psy_rd=1.00:0.25 / mixed_ref=1 / me_range=16 / chroma_me=1 / trellis=1 / 8x8dct=1 / cqm=0 / deadzone=6,6 / fast_pskip=1 / chroma_qp_offset=-4 / threads=12 / lookahead_threads=2 / sliced_threads=0 / nr=0 / decimate=0 / interlaced=0 / bluray_compat=0 / constrained_intra=0 / bframes=3 / b_pyramid=2 / b_adapt=1 / b_bias=0 / direct=1 / weightb=1 / open_gop=0 / weightp=2 / keyint=599 / keyint_min=59 / scenecut=40 / intra_refresh=0 / rc_lookahead=40 / rc=2pass / mbtree=1 / bitrate=14700 / ratetol=1.0 / qcomp=0.80 / qpmin=0 / qpmax=69 / qpstep=4 / cplxblur=20.0 / qblur=0.5 / vbv_maxrate=50000 / vbv_bufsize=50000 / nal_hrd=none / filler=0 / ip_ratio=1.10 / aq=1:0.50
    Язык : English
    Default : Да
    Forced : Нет
    Аудио #1
    Идентификатор : 2
    Формат : DTS
    Формат/Информация : Digital Theater Systems
    Режим : 16
    Параметр Endianness формата : Big
    Идентификатор кодека : A_DTS
    Продолжительность : 1 ч. 41 м.
    Вид битрейта : Постоянный
    Битрейт : 1510 Кбит/сек
    Каналы : 6 каналов
    Расположение каналов : Front: L C R, Side: L R, LFE
    Частота : 48,0 КГц
    Частота кадров : 93,750 кадра/сек (512 spf)
    Битовая глубина : 16 бит
    Метод сжатия : С потерями
    Размер потока : 1,07 Гбайт (9%)
    Заголовок : Профессиональный (дублированный)
    Язык : Russian
    Default : Да
    Forced : Нет
    Аудио #2
    Идентификатор : 3
    Формат : DTS
    Формат/Информация : Digital Theater Systems
    Режим : 16
    Параметр Endianness формата : Big
    Идентификатор кодека : A_DTS
    Продолжительность : 1 ч. 41 м.
    Вид битрейта : Постоянный
    Битрейт : 1509 Кбит/сек
    Каналы : 6 каналов
    Расположение каналов : Front: L C R, Side: L R, LFE
    Частота : 48,0 КГц
    Частота кадров : 93,750 кадра/сек (512 spf)
    Битовая глубина : 24 бит
    Метод сжатия : С потерями
    Размер потока : 1,07 Гбайт (9%)
    Заголовок : Оригинал
    Язык : English
    Default : Нет
    Forced : Нет
    Текст #1
    Идентификатор : 4
    Формат : UTF-8
    Идентификатор кодека : S_TEXT/UTF8
    Идентификатор кодека/Информация : UTF-8 Plain Text
    Продолжительность : 39 с. 256 мс.
    Битрейт : 81 бит/сек
    Count of elements : 9
    Размер потока : 400 байт (0%)
    Заголовок : Forced (GORENOISE)
    Язык : Russian
    Default : Да
    Forced : Нет
    Текст #2
    Идентификатор : 5
    Формат : UTF-8
    Идентификатор кодека : S_TEXT/UTF8
    Идентификатор кодека/Информация : UTF-8 Plain Text
    Продолжительность : 1 ч. 32 м.
    Битрейт : 62 бит/сек
    Count of elements : 743
    Размер потока : 42,2 Кбайт (0%)
    Заголовок : Full
    Язык : Russian
    Default : Нет
    Forced : Нет
    Текст #3
    Идентификатор : 6
    Формат : UTF-8
    Идентификатор кодека : S_TEXT/UTF8
    Идентификатор кодека/Информация : UTF-8 Plain Text
    Продолжительность : 1 ч. 38 м.
    Битрейт : 35 бит/сек
    Count of elements : 751
    Размер потока : 25,4 Кбайт (0%)
    Заголовок : Full
    Язык : English
    Default : Нет
    Forced : Нет
    Текст #4
    Идентификатор : 7
    Формат : UTF-8
    Идентификатор кодека : S_TEXT/UTF8
    Идентификатор кодека/Информация : UTF-8 Plain Text
    Продолжительность : 1 ч. 39 м.
    Битрейт : 38 бит/сек
    Count of elements : 870
    Размер потока : 28,2 Кбайт (0%)
    Заголовок : SDH
    Язык : English
    Default : Нет
    Forced : Нет
    Меню
    00:00:00.000 : en:00:00:00.000
    00:04:30.729 : en:00:04:30.729
    00:08:55.160 : en:00:08:55.160
    00:13:02.949 : en:00:13:02.949
    00:17:14.450 : en:00:17:14.450
    00:23:05.342 : en:00:23:05.342
    00:28:31.752 : en:00:28:31.752
    00:35:37.719 : en:00:35:37.719
    00:39:06.427 : en:00:39:06.427
    00:42:46.772 : en:00:42:46.772
    00:46:20.444 : en:00:46:20.444
    00:51:48.772 : en:00:51:48.772
    00:59:14.342 : en:00:59:14.342
    01:03:59.085 : en:01:03:59.085
    01:07:26.334 : en:01:07:26.334
    01:11:07.972 : en:01:11:07.972
    01:15:20.808 : en:01:15:20.808
    01:18:41.091 : en:01:18:41.091
    01:23:02.978 : en:01:23:02.978
    01:26:48.787 : en:01:26:48.787
    01:30:13.825 : en:01:30:13.825
    01:31:26.731 : en:01:31:26.731
    01:35:31.601 : en:01:35:31.601


Вы не можете начинать темы
Вы не можете отвечать на сообщения
Вы не можете редактировать свои сообщения
Вы не можете удалять свои сообщения
Вы не можете голосовать в опросах
Вы не можете прикреплять файлы к сообщениям
Вы не можете скачивать файлы