[Цитировать]
Kryl

«Stay peculiar»- Информация
Название: Дом странных детей Мисс Перегрин
Оригинальное название: Miss Peregrine's Home for Peculiar Children
Год выхода: 2016
Жанр: Фэнтези, приключения, экранизация
Режиссер: Тим Бёртон
Сценарий: Джейн Голдман, Рэнсом Риггз
Продюсер: Питер Чернин, Дженно Топпинг, Каттерли Фроуенфельдер
В ролях: Ева Грин, Эйса Баттерфилд, Сэмюэл Л. Джексон, Джуди Денч, Руперт Эверетт, Эллисон Джэнни, Крис О`Дауд, Теренс Стэмп, Элла Пёрнелл, Финлэй МакМиллан, Лорен МакКрости, Хейден Килер-Стоун, Джорджия Пембертон, Майло Паркер, Раффиелла Чепмен, Пикси Дейвис
--Сюжет:
Детство Джейкоба прошло под рассказы дедушки о приюте для необычных детей. Среди его обитателей девочка, которая умела держать в руках огонь, девочка, чьи ноги не касались земли, невидимый мальчик и близнецы, умевшие общаться без слов. Когда дедушка умирает, 16-летний Джейкоб получает загадочное письмо и отправляется на остров, где вырос его дед. Там он находит детей, которых раньше видел только на фотографиях.- Страна: США, Великобритания, Бельгия
Продолжительность: 02:06:55

Файл
Кодек: MPEG4/ISO/AVC/H.264
Формат: MKV
Качество: BDRip 1080p | 60 fps
Видео: 1920 x 1040 (1.846) | 59.940 fps | 25.0 Мбит/сек
Аудио 1: AC3 | 5.1 | 48 kHz | 640 kbps | 16 bit | Дубляж |
Аудио 2: AC3 | 5.1 | 48 kHz | 448 kbps | 16 bit | Украинский |
Аудио 3: AC3 | 5.1 | 48 kHz | 640 kbps | 16 bit | ENG |
Субтитры: Русские, Украинские, Английские

MedifInfo

Видео
Идентификатор : 1
Формат : AVC
Формат/Информация : Advanced Video Codec
Профиль формата : High@L4.1
Параметр CABAC формата : Да
Параметр ReFrames формата : 4 кадра
Идентификатор кодека : V_MPEG4/ISO/AVC
Продолжительность : 2 ч. 6 м.
Битрейт : 25,0 Мбит/сек
Ширина : 1920 пикселей
Высота : 1040 пикселей
Соотношение сторон : 1,85:1
Режим частоты кадров : Постоянный
Частота кадров : 59,880 кадров/сек
Частота кадров в оригинале : 59,940 кадров/сек
Цветовое пространство : YUV
Субдискретизация насыщенности : 4:2:0
Битовая глубина : 8 бит
Тип развёртки : Прогрессивная
Бит/(Пиксели*Кадры) : 0.209
Размер потока : 21,6 Гбайт (92%)
Заголовок : www.60-fps.org
Библиотека кодирования : x264 core 148 r2638 7599210
Настройки программы : cabac=1 / ref=4 / deblock=1:-3:-3 / analyse=0x3:0x113 / me=umh / subme=8 / psy=1 / psy_rd=1.00:0.25 / mixed_ref=1 / me_range=32 / chroma_me=1 / trellis=1 / 8x8dct=1 / cqm=0 / deadzone=6,6 / fast_pskip=1 / chroma_qp_offset=-4 / threads=12 / lookahead_threads=2 / sliced_threads=0 / nr=0 / decimate=0 / interlaced=0 / bluray_compat=0 / constrained_intra=0 / bframes=3 / b_pyramid=2 / b_adapt=2 / b_bias=0 / direct=3 / weightb=1 / open_gop=0 / weightp=2 / keyint=599 / keyint_min=59 / scenecut=40 / intra_refresh=0 / rc_lookahead=50 / rc=2pass / mbtree=1 / bitrate=24999 / ratetol=1.0 / qcomp=0.80 / qpmin=0 / qpmax=69 / qpstep=4 / cplxblur=20.0 / qblur=0.5 / vbv_maxrate=62500 / vbv_bufsize=78125 / nal_hrd=none / filler=0 / ip_ratio=1.10 / aq=1:0.50
Default : Да
Forced : Нет
Аудио #1
Идентификатор : 2
Формат : AC-3
Формат/Информация : Audio Coding 3
Расширение режима : CM (complete main)
Параметр Endianness формата : Big
Идентификатор кодека : A_AC3
Продолжительность : 2 ч. 6 м.
Вид битрейта : Постоянный
Битрейт : 640 Кбит/сек
Каналы : 6 каналов
Расположение каналов : Front: L C R, Side: L R, LFE
Частота : 48,0 КГц
Битовая глубина : 16 бит
Метод сжатия : С потерями
Размер потока : 581 Мбайт (2%)
Заголовок : Дубляж
Язык : Russian
Default : Да
Forced : Нет
Аудио #2
Идентификатор : 3
Формат : AC-3
Формат/Информация : Audio Coding 3
Расширение режима : CM (complete main)
Параметр Endianness формата : Big
Идентификатор кодека : A_AC3
Продолжительность : 2 ч. 6 м.
Вид битрейта : Постоянный
Битрейт : 448 Кбит/сек
Каналы : 6 каналов
Расположение каналов : Front: L C R, Side: L R, LFE
Частота : 48,0 КГц
Битовая глубина : 16 бит
Метод сжатия : С потерями
Размер потока : 407 Мбайт (2%)
Заголовок : Украинский
Язык : Ukrainian
Default : Нет
Forced : Нет
Аудио #3
Идентификатор : 4
Формат : AC-3
Формат/Информация : Audio Coding 3
Расширение режима : CM (complete main)
Параметр Endianness формата : Big
Идентификатор кодека : A_AC3
Продолжительность : 2 ч. 6 м.
Вид битрейта : Постоянный
Битрейт : 640 Кбит/сек
Каналы : 6 каналов
Расположение каналов : Front: L C R, Side: L R, LFE
Частота : 48,0 КГц
Битовая глубина : 16 бит
Метод сжатия : С потерями
Размер потока : 581 Мбайт (2%)
Заголовок : Eng
Язык : English
Default : Нет
Forced : Нет
Текст #1
Идентификатор : 5
Формат : UTF-8
Идентификатор кодека : S_TEXT/UTF8
Идентификатор кодека/Информация : UTF-8 Plain Text
Заголовок : Full
Язык : Russian
Default : Нет
Forced : Нет
Текст #2
Идентификатор : 6
Формат : UTF-8
Идентификатор кодека : S_TEXT/UTF8
Идентификатор кодека/Информация : UTF-8 Plain Text
Заголовок : Full
Язык : Ukrainian
Default : Нет
Forced : Нет
Текст #3
Идентификатор : 7
Формат : UTF-8
Идентификатор кодека : S_TEXT/UTF8
Идентификатор кодека/Информация : UTF-8 Plain Text
Заголовок : Full
Язык : English
Default : Нет
Forced : Нет
Текст #4
Идентификатор : 8
Формат : UTF-8
Идентификатор кодека : S_TEXT/UTF8
Идентификатор кодека/Информация : UTF-8 Plain Text
Заголовок : SDH
Язык : English
Default : Нет
Forced : Нет
Меню
00:00:00.000 : en:Chapter 01
00:03:40.803 : en:Chapter 02
00:08:38.017 : en:Chapter 03
00:13:06.827 : en:Chapter 04
00:15:26.550 : en:Chapter 05
00:19:47.477 : en:Chapter 06
00:23:23.652 : en:Chapter 07
00:27:47.040 : en:Chapter 08
00:31:06.447 : en:Chapter 09
00:34:36.783 : en:Chapter 10
00:39:34.997 : en:Chapter 11
00:42:42.810 : en:Chapter 12
00:46:05.637 : en:Chapter 13
00:48:36.496 : en:Chapter 14
00:54:16.461 : en:Chapter 15
00:57:21.479 : en:Chapter 16
01:02:03.261 : en:Chapter 17
01:08:20.846 : en:Chapter 18
01:14:29.006 : en:Chapter 19
01:18:54.062 : en:Chapter 20
01:24:15.300 : en:Chapter 21
01:28:42.442 : en:Chapter 22
01:33:11.752 : en:Chapter 23
01:36:29.033 : en:Chapter 24
01:40:43.787 : en:Chapter 25
01:46:09.237 : en:Chapter 26
01:53:35.308 : en:Chapter 27
02:00:34.393 : en:Chapter 28

Релиз подготовлен 60 - fps



Последний раз редактировалось: Kryl (2016-12-07 15:46), всего редактировалось 1 раз
 
Показать сообщения:    

Текущее время: 26-Июн 18:36

Часовой пояс: UTC + 3


Вы не можете начинать темы
Вы не можете отвечать на сообщения
Вы не можете редактировать свои сообщения
Вы не можете удалять свои сообщения
Вы не можете голосовать в опросах
Вы не можете прикреплять файлы к сообщениям
Вы не можете скачивать файлы