[Цитировать]
mimok

Дом ночных призраков / House on Haunted Hill (1999) BDRip 720p | 60fps«Are You Dying To Be Rich?»- Информация о фильме
Название: Дом ночных призраков
Оригинальное название: House on Haunted Hill
Год выхода: 1999
Жанр: Ужасы, триллер, детектив
Режиссер: Уильям Мэлоун
Продюсер: Гилберт Адлер, Джоэл Силвер, Роберт Земекис
В ролях: Джеффри Раш, Фамке Янссен, Тэй Диггз, Питер Галлахер, Крис Кэттэн, Эли Лартер, Бриджит Уилсон, Макс Перлих, Джеффри Комбс, Дик Биби
Описание фильма:
Эксцентричный миллионер по имени Стивен Прайс решает отметить день рождения своей горячо нелюбимой жены Эвилен в заброшенном доме с жутким прошлым. В нем много лет назад некий доктор-маньяк проводил бесчеловечные эксперименты и зверски мучил своих пациентов.
Список приглашенных кто-то загадочным образом подменяет, и в дом на холме приезжают совершенно незнакомые друг другу люди. Прайс предлагает миллион долларов каждому, кто останется в доме до утра… Душераздирающая вечеринка начинается!
Страна: США
Студия: Dark Castle Entertainment, Helkon Media AG
Продолжительность: 01:32:47
Перевод: Дублированный, MVO, VO
Субтитры: Вшитые, отключаемые
Язык субтитров: Русский (Full), Английский (Full)

Дата мировой премьеры:27 октября 1999
Дата российской премьеры:10 мая 2001, «Каро-Премьер»
Файл
Формат: MKV
Кодек: MPEG-4 AVC/H.264
Качество: BDRip 720p
Видео: ~ 13.8 Мбит/сек, 1280 x 720, 60.000 кадров/сек
Аудио#1: Русский AC3 5.1, 48.0 KHz, 448 Кбит/сек - Дубляж
Аудио#2: Русский AC3 5.1, 48.0 KHz, 384 Кбит/сек - MVO DVD-Эксперт
Аудио#3: Русский AC3 5.1, 48.0 KHz, 384 Кбит/сек - DVO
Аудио#4: Русский AC3 5.1, 48.0 KHz, 384 Кбит/сек - А. Гаврилов
Аудио#5: Русский AC3 2, 48.0 KHz, 192 Кбит/сек - В. Сонькин
Аудио#6: Русский AC3 2, 48.0 KHz, 192 Кбит/сек - С.Визгунов

MediaInfo

Общее
Уникальный идентификатор : 250411554089510855041889759655334507367 (0xBC6382D3CA25361C8EB3E4817D13F367)
Полное имя : E:\Торренты\House on Haunted Hill 60fps.mkv
Формат : Matroska
Версия формата : Version 4 / Version 2
Размер файла : 10,4 Гбайт
Продолжительность : 1 ч. 32 м.
Общий поток : 16,1 Мбит/сек
Название фильма : House on Haunted Hill (1999) Blu-Ray
Дата кодирования : UTC 2016-02-19 07:08:14
Программа кодирования : mkvmerge v6.9.1 ('Blue Panther') 64bit built on Apr 18 2014 18:23:38
Библиотека кодирования : libebml v1.3.0 + libmatroska v1.4.1
Видео
Идентификатор : 1
Формат : AVC
Формат/Информация : Advanced Video Codec
Профиль формата : High@L4.1
Параметр CABAC формата : Да
Параметр ReFrames формата : 6 кадров
Идентификатор кодека : V_MPEG4/ISO/AVC
Продолжительность : 1 ч. 32 м.
Битрейт : 13,8 Мбит/сек
Ширина : 1280 пикселей
Высота : 720 пикселей
Соотношение сторон : 16:9
Режим частоты кадров : Постоянный
Частота кадров : 60,000 кадров/сек
Цветовое пространство : YUV
Субдискретизация насыщенности : 4:2:0
Битовая глубина : 8 бит
Тип развёртки : Прогрессивная
Бит/(Пиксели*Кадры) : 0.249
Размер потока : 8,93 Гбайт (86%)
Заголовок : Release by mimok
Библиотека кодирования : x264 core 130 r2273 b3065e6
Настройки программы : cabac=1 / ref=6 / deblock=1:0:0 / analyse=0x3:0x133 / me=umh / subme=8 / psy=1 / psy_rd=1.00:0.15 / mixed_ref=1 / me_range=20 / chroma_me=1 / trellis=2 / 8x8dct=1 / cqm=0 / deadzone=21,11 / fast_pskip=0 / chroma_qp_offset=-3 / threads=6 / lookahead_threads=2 / sliced_threads=0 / nr=0 / decimate=0 / interlaced=0 / bluray_compat=0 / constrained_intra=0 / bframes=8 / b_pyramid=2 / b_adapt=2 / b_bias=0 / direct=1 / weightb=1 / open_gop=0 / weightp=2 / keyint=250 / keyint_min=25 / scenecut=40 / intra_refresh=0 / rc=crf / mbtree=0 / crf=17.0 / qcomp=0.63 / qpmin=10 / qpmax=51 / qpstep=4 / ip_ratio=1.40 / pb_ratio=1.30 / aq=2:1.20
Default : Да
Forced : Нет
Аудио #1
Идентификатор : 2
Формат : AC-3
Формат/Информация : Audio Coding 3
Расширение режима : CM (complete main)
Параметр Endianness формата : Big
Идентификатор кодека : A_AC3
Продолжительность : 1 ч. 32 м.
Вид битрейта : Постоянный
Битрейт : 448 Кбит/сек
Каналы : 6 каналов
Расположение каналов : Front: L C R, Side: L R, LFE
Частота : 48,0 КГц
Частота кадров : 31,250 кадров/сек (1536 spf)
Метод сжатия : С потерями
Размер потока : 297 Мбайт (3%)
Заголовок : Dub
Язык : Russian
Default : Да
Forced : Нет
Аудио #2
Идентификатор : 3
Формат : AC-3
Формат/Информация : Audio Coding 3
Расширение режима : CM (complete main)
Параметр Endianness формата : Big
Идентификатор кодека : A_AC3
Продолжительность : 1 ч. 32 м.
Вид битрейта : Постоянный
Битрейт : 384 Кбит/сек
Каналы : 6 каналов
Расположение каналов : Front: L C R, Side: L R, LFE
Частота : 48,0 КГц
Частота кадров : 31,250 кадров/сек (1536 spf)
Метод сжатия : С потерями
Размер потока : 255 Мбайт (2%)
Заголовок : MVO DVD Expert
Язык : Russian
Default : Нет
Forced : Нет
Аудио #3
Идентификатор : 4
Формат : AC-3
Формат/Информация : Audio Coding 3
Расширение режима : CM (complete main)
Параметр Endianness формата : Big
Идентификатор кодека : A_AC3
Продолжительность : 1 ч. 32 м.
Вид битрейта : Постоянный
Битрейт : 384 Кбит/сек
Каналы : 6 каналов
Расположение каналов : Front: L C R, Side: L R, LFE
Частота : 48,0 КГц
Частота кадров : 31,250 кадров/сек (1536 spf)
Метод сжатия : С потерями
Размер потока : 255 Мбайт (2%)
Заголовок : DVO
Язык : Russian
Default : Нет
Forced : Нет
Аудио #4
Идентификатор : 5
Формат : AC-3
Формат/Информация : Audio Coding 3
Расширение режима : CM (complete main)
Параметр Endianness формата : Big
Идентификатор кодека : A_AC3
Продолжительность : 1 ч. 32 м.
Вид битрейта : Постоянный
Битрейт : 384 Кбит/сек
Каналы : 6 каналов
Расположение каналов : Front: L C R, Side: L R, LFE
Частота : 48,0 КГц
Частота кадров : 31,250 кадров/сек (1536 spf)
Метод сжатия : С потерями
Размер потока : 255 Мбайт (2%)
Заголовок : AVO А.Гаврилов
Язык : Russian
Default : Нет
Forced : Нет
Аудио #5
Идентификатор : 6
Формат : AC-3
Формат/Информация : Audio Coding 3
Расширение режима : CM (complete main)
Параметр Endianness формата : Big
Идентификатор кодека : A_AC3
Продолжительность : 1 ч. 32 м.
Вид битрейта : Постоянный
Битрейт : 192 Кбит/сек
Каналы : 2 канала
Расположение каналов : Front: L R
Частота : 48,0 КГц
Частота кадров : 31,250 кадров/сек (1536 spf)
Метод сжатия : С потерями
Размер потока : 127 Мбайт (1%)
Заголовок : AVO В.Сонькин
Язык : Russian
Default : Нет
Forced : Нет
Аудио #6
Идентификатор : 7
Формат : AC-3
Формат/Информация : Audio Coding 3
Расширение режима : CM (complete main)
Параметр Endianness формата : Big
Идентификатор кодека : A_AC3
Продолжительность : 1 ч. 32 м.
Вид битрейта : Постоянный
Битрейт : 192 Кбит/сек
Каналы : 2 канала
Расположение каналов : Front: L R
Частота : 48,0 КГц
Частота кадров : 31,250 кадров/сек (1536 spf)
Метод сжатия : С потерями
Размер потока : 127 Мбайт (1%)
Заголовок : AVO С.Визгунов
Язык : Russian
Default : Нет
Forced : Нет
Текст #1
Идентификатор : 8
Формат : UTF-8
Идентификатор кодека : S_TEXT/UTF8
Идентификатор кодека/Информация : UTF-8 Plain Text
Заголовок : Full
Язык : Russian
Default : Да
Forced : Нет
Текст #2
Идентификатор : 9
Формат : UTF-8
Идентификатор кодека : S_TEXT/UTF8
Идентификатор кодека/Информация : UTF-8 Plain Text
Заголовок : Full
Язык : English
Default : Нет
Forced : Нет
Скриншоты:

Релиз подготовлен 60 - fps

[Цитировать]
DIMMM52

Прикольный фильм, очаровательная Фамке Янссен, неотразимая Эли Лартер. Эх гига бы на четыре, пасиб. Рукопожатие
 
Показать сообщения:    

Текущее время: 06-Дек 15:10

Часовой пояс: UTC + 3


Вы не можете начинать темы
Вы не можете отвечать на сообщения
Вы не можете редактировать свои сообщения
Вы не можете удалять свои сообщения
Вы не можете голосовать в опросах
Вы не можете прикреплять файлы к сообщениям
Вы не можете скачивать файлы