Агент Ева / Ava (2020) BDRip 1080p | 60 fps Властелин колец: Трилогия / The Lord of the Rings: Trilogy (2001-2003) BDRip-AVC | Extended Cut | 60 fps Пятый элемент / The Fifth Element (1997) BDRip 1080p | 60 fps Форпост / The Outpost (2020) BDRip 1080p | 60 fps Охота / The Hunt (2020) BDRip 1080p | 60 fps Вивариум / Vivarium (2019) BDRip 720p | 60 fps Ультрафиолет / Ultraviolet (2006) BDRip 1080p | 60 fps Поезд смерти / D-Railed (2018) BDRip 1080p | 60 fps
  1. Longevity:
    4 years 1 month
    Posts:
    161
    Gender:
    Male
    Заказать фильмы, клипы или любое другое видео в качестве 60fps может каждый!!!
    Стоимость одного видео 50руб. !!!
    Пишите Талямба в личку, всё обсудите...
    Дом большой мамочки / Big Momma's House (2000) BDRip 1080p | 60 fps

    Информация
    Название: Дом большой мамочки
    Оригинальное название: Big Momma's House
    Год выхода: 2020
    Страна: США, Германия
    Продолжительность: 1 ч. 38 м. 58 с.

    Жанр: Боевик, комедия, криминал
    Режиссер: Раджа Госнелл / Raja Gosnell
    В ролях: Мартин Лоуренс, Ниа Лонг, Пол Джаматти, Яша Вашингтон, Терренс Ховард, Энтони Андерсон, Элла Митчел, Карл Райт, Филлис Эпплгейт, Старлетта Дюпуа

    Сюжет:

    Агент ФБР Малькольм Тернер, мастер перевоплощений. Он умен, обаятелен и не существует такого задания, с которым он бы не справился. Остановить череду жестоких преступлений? Нет проблем.
    Малкольм входит в роль пожилого азиата для расследования преступлений. Последнее назначение Малькома приводит его в маленький южный городок, где он должен поймать матерого грабителя банков, недавно сбежавшего из тюрьмы.
    Малькольм устанавливает слежку за домом южной, властной женщины, известной как «Большая мамочка». По оперативным данным ее должна навестить бывшая подружка преступника Шерри со своим сыном. Очень простой план, но есть одна Большая проблема: Большая мамочка неожиданно покидает город...


    Файл
    Кодек: MPEG4/ISO/AVC/H.264/
    Формат: MKV / [email protected]
    Качество: BDRip | 1080p
    Видео: 1920 x 1032 (1.86:1) | 59.940 fps | 30.0 Мбит/сек
    Аудио 1: Русский (DTS, 3/2 (L,C,R,l,r) + LFE ch, 48 kHz, ~768.00 kbps avg) | RUS | Дубляж, Blu-ray CEE |
    Аудио 2: Английский DTS-HD MA 5.1, 48 kHz/24-bit, ~3990.00 kbps avg (DTS Core: 5.1 / 48 kHz / 1509 kbps / 24-bit) | Английский |

    MedifInfo

    Общее
    Уникальный идентификатор : 232192947058292400200773507125635877988 (0xAEAEBC266FFB086C8AA1A28B82E28C64)
    Полное имя : D:\Movie\Дом большой мамочки (Дилогия)\Дом большой мамочки.1080p.60fps.mkv
    Формат : Matroska
    Версия формата : Version 2
    Размер файла : 24,0 Гбайт
    Продолжительность : 1 ч. 38 м.
    Общий поток : 34,7 Мбит/сек
    Дата кодирования : UTC 2021-02-11 16:14:55
    Программа кодирования : mkvmerge v5.8.0 ('No Sleep / Pillow') built on Sep 2 2012 15:37:04
    Библиотека кодирования : libebml v1.2.3 + libmatroska v1.3.0
    Attachments : Poster.jpg
    Видео
    Идентификатор : 1
    Формат : AVC
    Формат/Информация : Advanced Video Codec
    Профиль формата : [email protected]
    Параметр CABAC формата : Да
    Параметр ReFrames формата : 4 кадра
    Режим смешивания : Header stripping
    Идентификатор кодека : V_MPEG4/ISO/AVC
    Продолжительность : 1 ч. 38 м.
    Номинальный битрейт : 30,0 Мбит/сек
    Ширина : 1920 пикселей
    Высота : 1032 пикселя
    Соотношение сторон : 1,85:1
    Режим частоты кадров : Постоянный
    Частота кадров : 59,940 (60000/1001) кадров/сек
    Цветовое пространство : YUV
    Субдискретизация насыщенности : 4:2:0
    Битовая глубина : 8 бит
    Тип развёртки : Прогрессивная
    Бит/(Пиксели*Кадры) : 0.253
    Библиотека кодирования : x264 core 146 r2538 121396c
    Настройки программы : cabac=1 / ref=4 / deblock=1:0:0 / analyse=0x3:0x113 / me=umh / subme=8 / psy=1 / psy_rd=1.00:0.25 / mixed_ref=1 / me_range=16 / chroma_me=1 / trellis=1 / 8x8dct=1 / cqm=0 / deadzone=6,6 / fast_pskip=1 / chroma_qp_offset=-4 / threads=12 / lookahead_threads=3 / sliced_threads=0 / nr=0 / decimate=0 / interlaced=0 / bluray_compat=0 / constrained_intra=0 / bframes=3 / b_pyramid=2 / b_adapt=2 / b_bias=0 / direct=3 / weightb=1 / open_gop=0 / weightp=2 / keyint=600 / keyint_min=60 / scenecut=40 / intra_refresh=0 / rc_lookahead=50 / rc=2pass / mbtree=1 / bitrate=30000 / ratetol=1.0 / qcomp=0.80 / qpmin=0 / qpmax=69 / qpstep=4 / cplxblur=20.0 / qblur=0.5 / vbv_maxrate=50000 / vbv_bufsize=50000 / nal_hrd=none / filler=0 / ip_ratio=1.10 / aq=1:0.50
    Язык : English
    Default : Да
    Forced : Нет
    Аудио #1
    Идентификатор : 2
    Формат : DTS
    Формат/Информация : Digital Theater Systems
    Режим : 16
    Параметр Endianness формата : Big
    Режим смешивания : Header stripping
    Идентификатор кодека : A_DTS
    Продолжительность : 1 ч. 38 м.
    Вид битрейта : Постоянный
    Битрейт : 768 Кбит/сек
    Каналы : 6 каналов
    Расположение каналов : Front: L C R, Side: L R, LFE
    Частота : 48,0 КГц
    Частота кадров : 93,750 кадра/сек (512 spf)
    Битовая глубина : 24 бит
    Метод сжатия : С потерями
    Размер потока : 544 Мбайт (2%)
    Язык : Russian
    Default : Да
    Forced : Нет
    Аудио #2
    Идентификатор : 3
    Формат : DTS
    Формат/Информация : Digital Theater Systems
    Профиль формата : MA / Core
    Режим : 16
    Параметр Endianness формата : Big
    Режим смешивания : Header stripping
    Идентификатор кодека : A_DTS
    Продолжительность : 1 ч. 38 м.
    Вид битрейта : Переменный / Постоянный
    Битрейт : Неизвестно / 1509 Кбит/сек
    Каналы : 6 каналов
    Расположение каналов : Front: L C R, Side: L R, LFE
    Частота : 48,0 КГц
    Частота кадров : 93,750 кадра/сек (512 spf)
    Битовая глубина : 24 бит
    Метод сжатия : Без потерь / Lossy
    Язык : English
    Default : Нет
    Forced : Нет
    --- Дом большой мамочки 2 / Big Momma's House 2 (2020) BDRip 1080p | 60 fps

    Информация
    Название: Дом большой мамочки 2
    Оригинальное название: Big Momma's House 2
    Год выхода: 2006
    Страна: США
    Продолжительность: 1 ч. 38 м. 52 с.

    Жанр: Боевик, триллер, комедия
    Режиссер: Джон Уайтселл / John Whitesell
    В ролях: Мартин Лоуренс, Ниа Лонг, Эмили Проктер, Захари Левай, Марк Мозес, Кэт Деннингс, Хлоя Морец, Марисоль Николс, Джош Флиттер, Дэн Лория

    Сюжет:

    Агент ФБР Малкольм Тёрнер решает отойти от дел, что бы больше времени проводить с беременной женой, но узнаёт, что его бывший напарник был убит, предположительно одним из людей бизнесмена Тома Фуллера, которого ФБР подозревает в изготовлении вируса для террористов. Малкольм решает закончить дело своего коллеги, для чего он вновь надевает «костюм» Большой Мамочки и устраивается в дом Фуллера работать няней...


    Файл
    Кодек: MPEG4/ISO/AVC/H.264/
    Формат: MKV / [email protected]
    Качество: BDRip | 1080p
    Видео: 1920 x 1040 (1.85:1) | 59.940 fps | 30.0 Мбит/сек
    Аудио 1: Русский DTS, 3/2 (L,C,R,l,r) + LFE ch, 48 kHz, ~768.00 kbps avg | RUS | Дубляж, Blu-ray CEE |
    Аудио 2: Английский DTS-HD MA 5.1, 48 kHz/24-bit, ~4103.00 kbps avg | Английский |

    MedifInfo

    Общее
    Уникальный идентификатор : 223898779565280314293508651731508664905 (0xA871561ECFDBE2C3AEEB628890AA1A49)
    Полное имя : D:\Movie\Дом большой мамочки (Дилогия)\Дом большой мамочки 2.1080p.60fps.mkv
    Формат : Matroska
    Версия формата : Version 2
    Размер файла : 24,1 Гбайт
    Продолжительность : 1 ч. 38 м.
    Общий поток : 34,8 Мбит/сек
    Дата кодирования : UTC 2021-02-12 06:50:19
    Программа кодирования : mkvmerge v5.8.0 ('No Sleep / Pillow') built on Sep 2 2012 15:37:04
    Библиотека кодирования : libebml v1.2.3 + libmatroska v1.3.0
    Attachments : Poster.jpg
    Видео
    Идентификатор : 1
    Формат : AVC
    Формат/Информация : Advanced Video Codec
    Профиль формата : [email protected]
    Параметр CABAC формата : Да
    Параметр ReFrames формата : 4 кадра
    Режим смешивания : Header stripping
    Идентификатор кодека : V_MPEG4/ISO/AVC
    Продолжительность : 1 ч. 38 м.
    Номинальный битрейт : 30,0 Мбит/сек
    Ширина : 1920 пикселей
    Высота : 1040 пикселей
    Соотношение сторон : 1,85:1
    Режим частоты кадров : Постоянный
    Частота кадров : 59,940 (60000/1001) кадров/сек
    Цветовое пространство : YUV
    Субдискретизация насыщенности : 4:2:0
    Битовая глубина : 8 бит
    Тип развёртки : Прогрессивная
    Бит/(Пиксели*Кадры) : 0.251
    Библиотека кодирования : x264 core 146 r2538 121396c
    Настройки программы : cabac=1 / ref=4 / deblock=1:0:0 / analyse=0x3:0x113 / me=umh / subme=8 / psy=1 / psy_rd=1.00:0.25 / mixed_ref=1 / me_range=16 / chroma_me=1 / trellis=1 / 8x8dct=1 / cqm=0 / deadzone=6,6 / fast_pskip=1 / chroma_qp_offset=-4 / threads=12 / lookahead_threads=3 / sliced_threads=0 / nr=0 / decimate=0 / interlaced=0 / bluray_compat=0 / constrained_intra=0 / bframes=3 / b_pyramid=2 / b_adapt=2 / b_bias=0 / direct=3 / weightb=1 / open_gop=0 / weightp=2 / keyint=600 / keyint_min=60 / scenecut=40 / intra_refresh=0 / rc_lookahead=50 / rc=2pass / mbtree=1 / bitrate=30000 / ratetol=1.0 / qcomp=0.80 / qpmin=0 / qpmax=69 / qpstep=4 / cplxblur=20.0 / qblur=0.5 / vbv_maxrate=50000 / vbv_bufsize=50000 / nal_hrd=none / filler=0 / ip_ratio=1.10 / aq=1:0.50
    Язык : English
    Default : Да
    Forced : Нет
    Аудио #1
    Идентификатор : 2
    Формат : DTS
    Формат/Информация : Digital Theater Systems
    Режим : 16
    Параметр Endianness формата : Big
    Режим смешивания : Header stripping
    Идентификатор кодека : A_DTS
    Продолжительность : 1 ч. 38 м.
    Вид битрейта : Постоянный
    Битрейт : 768 Кбит/сек
    Каналы : 6 каналов
    Расположение каналов : Front: L C R, Side: L R, LFE
    Частота : 48,0 КГц
    Частота кадров : 93,750 кадра/сек (512 spf)
    Битовая глубина : 24 бит
    Метод сжатия : С потерями
    Размер потока : 543 Мбайт (2%)
    Язык : Russian
    Default : Да
    Forced : Нет
    Аудио #2
    Идентификатор : 3
    Формат : DTS
    Формат/Информация : Digital Theater Systems
    Профиль формата : MA / Core
    Режим : 16
    Параметр Endianness формата : Big
    Режим смешивания : Header stripping
    Идентификатор кодека : A_DTS
    Продолжительность : 1 ч. 38 м.
    Вид битрейта : Переменный / Постоянный
    Битрейт : Неизвестно / 1509 Кбит/сек
    Каналы : 6 каналов
    Расположение каналов : Front: L C R, Side: L R, LFE
    Частота : 48,0 КГц
    Частота кадров : 93,750 кадра/сек (512 spf)
    Битовая глубина : 24 бит
    Метод сжатия : Без потерь / Lossy
    Язык : English
    Default : Нет
    Forced : Нет

    Release was prepared by 60-fps.org



You cannot post new topics in this forum
You cannot reply to topics in this forum
You cannot edit your posts in this forum
You cannot delete your posts in this forum
You cannot vote in polls in this forum
You cannot attach files in this forum
You cannot download files in this forum