Властелин колец: Трилогия / The Lord of the Rings: Trilogy (2001-2003) BDRip-AVC | Extended Cut | 60 fps К звёздам / Ad Astra (2019) BDRip 1080p | 60 fps Принц Персии: Пески времени / Prince of Persia: The Sands of Time (2010) BDRip 1080p | 60 fps 21 мост / 21 Bridges (2019) BDRip 1080p | 60 fps Достать ножи / Knives Out (2019) BDRip 1080p | 60 fps Удивительное путешествие доктора Дулиттла / Dolittle (2020) BDRip 1080p | 60 fps Паразиты / Gisaengchung (2019) BDRip 1080p | 60 fps День, когда Земля остановилась / The Day the Earth Stood Still (2008) BDRip 1080p | 60 fps
  1. bot

    Longevity:
    5 years 11 months
    Posts:
    410
    Gender:
    Unknown
    -Дом 3D / Home 3D
    Год выпуска: 2015
    Страна: США
    Жанр: мультфильм, фантастика, фэнтези, комедия, приключения, семейный
    Продолжительность: 01:33:48
    Перевод: Дубляж
    Субтитры: русские (Форсированные), русские (Полные), английские (Полные),-Режиссер: Тим Джонсон / Tim Johnson-В ролях: Джим Парсонс (Oh, озвучка), Рианна (Gratuity «Tip» Tucci, озвучка), Стив Мартин (Captain Smek, озвучка), Дженнифер Лопез (Lucy, озвучка), Мэтт Джонс (Kyle, озвучка), Брайан Степанек (Gorg Commander / Father / Boov, озвучка), Эйприл Стрюбинг (Boov Announcer, озвучка), Стивен Кеарин (Boov, озвучка), Лиза Стюарт (Boov, озвучка), Эйприл Уинчелл (Boov, озвучка), Дерек Бланкеншип (дополнительные голоса, озвучка, в титрах не указан), Найджел В. Тирни (Child A, в титрах не указан)-Описание:
    Захватив Землю, раса пришельцев Був тут же начинает заниматься её благоустройством и реорганизацией. «Не стоит благодарности!» - заявляют они землянам, собранным на время в отдельных резервациях. Находчивая и рисковая девочка по имени Дар, чудом сбежавшая от пришельцев, встречает на своем пути самого раздражающе-оптимистичного Бува по имени О, отвергнутого своими инопланетными собратьями. Этой, казалось бы, несовместимой парочке предстоит спасти нашу планету. Хорошо, что у них есть летающий автомобиль!-Рейтинг
    -Качество: 3D BDRip-AVC 60fps
    Формат 3D (Горизонтальная анаморфная стереопара)
    Порядок ракурсов (Левый ракурс первый)
    Формат: MKV
    Видео кодек: AVC
    Аудио кодек: AC3
    Видео: AVC, 1024x576 (16:9), 5400 kbps, 59,940 fps, 0,153 bpp
    Аудио: русский / AC3 / 5.1 / 48 kHz / 640 kbps / 16 bit |Дубляж|
    Навигация по главам: есть- -

    Внимание!

    Это первый релиз выполненный в формате 3D (HSBS) , ужатый до размера BDRip-AVC (4гб) и уплавленный до 60 кадров в секунду (60fps).
    -

    MI

    General
    Unique ID : 220106766109312779437813120506813030020 (0xA597056C21D7563DBF5114EEA6C11E84)
    Complete name : E:\Кодировка\Раздача\Дом 3D BDRip-AVC 60fps R.G. HD-Films.mkv
    Format : Matroska
    Format version : Version 4 / Version 2
    File size : 3.96 GiB
    Duration : 1h 33mn
    Overall bit rate : 6 045 Kbps
    Encoded date : UTC 2015-07-12 04:44:49
    Writing application : mkvmerge v7.0.0 ('Where We Going') 64bit built on Jun 9 2014 15:16:27
    Writing library : libebml v1.3.0 + libmatroska v1.4.1
    Video
    ID : 1
    Format : AVC
    Format/Info : Advanced Video Codec
    Format profile : High@L4.1
    Format settings, CABAC : Yes
    Format settings, ReFrames : 4 frames
    Codec ID : V_MPEG4/ISO/AVC
    Duration : 1h 33mn
    Bit rate : 5 400 Kbps
    Width : 1 024 pixels
    Height : 576 pixels
    Display aspect ratio : 16:9
    Frame rate : 59.940 fps
    Color space : YUV
    Chroma subsampling : 4:2:0
    Bit depth : 8 bits
    Scan type : Progressive
    Bits/(Pixel*Frame) : 0.153
    Stream size : 3.46 GiB (87%)
    Writing library : x264 core 146 r2538 121396c
    Encoding settings : cabac=1 / ref=3 / deblock=1:0:0 / analyse=0x3:0 / me=umh / subme=11 / psy=1 / psy_rd=1.00:0.10 / mixed_ref=1 / me_range=42 / chroma_me=0 / trellis=2 / 8x8dct=1 / cqm=0 / deadzone=21,11 / fast_pskip=0 / chroma_qp_offset=-3 / threads=12 / lookahead_threads=3 / sliced_threads=0 / nr=0 / decimate=0 / interlaced=0 / bluray_compat=0 / constrained_intra=0 / bframes=16 / b_pyramid=2 / b_adapt=2 / b_bias=0 / direct=3 / weightb=1 / open_gop=0 / weightp=2 / keyint=250 / keyint_min=25 / scenecut=40 / intra_refresh=0 / rc=2pass / mbtree=0 / bitrate=5400 / ratetol=1.0 / qcomp=0.60 / qpmin=0 / qpmax=69 / qpstep=4 / cplxblur=20.0 / qblur=0.5 / ip_ratio=1.40 / pb_ratio=1.30 / aq=1:0.90
    Language : English
    Default : Yes
    Forced : No
    Audio
    ID : 2
    Format : AC-3
    Format/Info : Audio Coding 3
    Mode extension : CM (complete main)
    Codec ID : A_AC3
    Duration : 1h 33mn
    Bit rate mode : Constant
    Bit rate : 640 Kbps
    Channel(s) : 6 channels
    Channel positions : Front: L C R, Side: L R, LFE
    Sampling rate : 48.0 KHz
    Bit depth : 16 bits
    Compression mode : Lossy
    Stream size : 429 MiB (11%)
    Title : Дубляж
    Language : Russian
    Default : Yes
    Forced : No
    Text #1
    ID : 3
    Format : UTF-8
    Codec ID : S_TEXT/UTF8
    Codec ID/Info : UTF-8 Plain Text
    Title : Форсированные
    Language : Russian
    Default : Yes
    Forced : No
    Text #2
    ID : 4
    Format : UTF-8
    Codec ID : S_TEXT/UTF8
    Codec ID/Info : UTF-8 Plain Text
    Title : Полные
    Language : Russian
    Default : No
    Forced : No
    Text #3
    ID : 5
    Format : UTF-8
    Codec ID : S_TEXT/UTF8
    Codec ID/Info : UTF-8 Plain Text
    Title : Полные
    Language : English
    Default : No
    Forced : No
    Menu
    00:00:00.000 : :Chapter 01
    00:03:43.723 : :Chapter 02
    00:07:28.406 : :Chapter 03
    00:11:19.470 : :Chapter 04
    00:14:26.949 : :Chapter 05
    00:17:58.952 : :Chapter 06
    00:21:05.639 : :Chapter 07
    00:25:18.850 : :Chapter 08
    00:29:07.078 : :Chapter 09
    00:33:14.617 : :Chapter 10
    00:38:58.961 : :Chapter 11
    00:41:31.155 : :Chapter 12
    00:44:27.539 : :Chapter 13
    00:46:50.933 : :Chapter 14
    00:51:34.758 : :Chapter 15
    00:56:25.924 : :Chapter 16
    01:00:43.681 : :Chapter 17
    01:03:53.496 : :Chapter 18
    01:06:57.722 : :Chapter 19
    01:09:44.180 : :Chapter 20
    01:13:55.764 : :Chapter 21
    01:18:11.770 : :Chapter 22
    01:21:55.368 : :Chapter 23
    01:23:56.031 : :Chapter 24
    01:33:47.955 : :Chapter 25

    Скриншоты



    Last edited by bot on 2015-07-12 12:45; edited 1 time in total


You cannot post new topics in this forum
You cannot reply to topics in this forum
You cannot edit your posts in this forum
You cannot delete your posts in this forum
You cannot vote in polls in this forum
You cannot attach files in this forum
You cannot download files in this forum