--Долина папоротников: Последний тропический лес / FernGully: The Last Rainforest (1992) BDRip 1080p | 60 fps --Информация о фильме
Название: Долина папоротников: Последний тропический лес
Оригинальное название:FernGully: The Last Rainforest
Год выхода: 1992
Страна: Австралия, США
Жанр: мультфильм, фэнтези, приключения, семейный
Режиссер: Билл Кройер / Bill Kroyer
Продолжительность: 01:15:52
Перевод: Профессиональный (двухголосый)
Субтитры: Русские (Полные), английские (полные)
Вид субтитров: Вшитые, отключаемые
В ролях:Тим Карри, Саманта Мэтис, Кристиан Слэйтер, Джонатан Уорд, Робин Уильямс, Грейс Забриски, Джеффри Блейк, Роберт Пасторелли, Чич Марин, Томми Чонг
--О фильме:
Хексус - это злой дух. Его задача - причинять боль и страдания. Он появился из раскаленного ядра Земли и принялся уничтожать сказочно красивый тропический лес, населенный забавными мистическими существами. Только объединившись и обратив свои мольбы к магическим силам природы, жителям леса удалось заточить Хексуса в одно из деревьев.
Но скоро зверушки опять сталкиваются со смертельной опасностью, на сей раз исходящей со стороны людей, занимающихся вырубкой лесов. Своими мощными бульдозерами люди сносят подкорень вековые деревья, не подозревая о том, что в одном из них своего часа дожидается мощнейшая безжалостная сила, несущая смерть всему живому.
Но наши маленькие герои проявляют чудеса смекалки и с юмором расправляются со всеми своими обидчиками.
- -Файл
Кодек: MPEG4/ISO/AVC/H.264
Формат: MKV
Качество: BDRip 1080p
Видео: AVC, 1920x1040, 11521 kbps, 59,940 fps
Аудио 1: AC-3, русский / 5.1 / 48 kHz / 384 kbps / 16 bit |Двухголосый, закадровый R5|
Аудио 2: AC-3, английский / 5.1 / 48 kHz / 640 kbps / 16 bit
Чаптеры (Главы): Есть-

MI

General
Unique ID : 210553255098367371493300427881722874556 (0x9E6714F6A0456B6E98AA03566F2B0ABC)
Complete name : A:1080p 60fpsДолина папаратников 1080p 60fps.mkv
Format : Matroska
Format version : Version 4 / Version 2
File size : 6.78 GiB
Duration : 1h 15mn
Overall bit rate : 12.8 Mbps
Encoded date : UTC 2014-09-12 09:25:01
Writing application : mkvmerge v6.9.1 ('Blue Panther') 64bit built on Apr 18 2014 18:23:38
Writing library : libebml v1.3.0 + libmatroska v1.4.1
Video
ID : 1
Format : AVC
Format/Info : Advanced Video Codec
Format profile : High@L4.1
Format settings, CABAC : Yes
Format settings, ReFrames : 4 frames
Codec ID : V_MPEG4/ISO/AVC
Duration : 1h 15mn
Bit rate : 11.5 Mbps
Width : 1 920 pixels
Height : 1 040 pixels
Display aspect ratio : 16:9
Frame rate : 59.940 fps
Color space : YUV
Chroma subsampling : 4:2:0
Bit depth : 8 bits
Scan type : Progressive
Bits/(Pixel*Frame) : 0.096
Stream size : 6.11 GiB (90%)
Writing library : x264 core 133 r2334 a3ac64b
Encoding settings : cabac=1 / ref=4 / deblock=1:-1:-1 / analyse=0x3:0 / me=umh / subme=9 / psy=1 / psy_rd=1.00:0.10 / mixed_ref=1 / me_range=42 / chroma_me=0 / trellis=2 / 8x8dct=1 / cqm=0 / deadzone=21,11 / fast_pskip=0 / chroma_qp_offset=-3 / threads=12 / lookahead_threads=1 / sliced_threads=0 / nr=0 / decimate=0 / interlaced=0 / bluray_compat=0 / constrained_intra=0 / bframes=5 / b_pyramid=2 / b_adapt=2 / b_bias=0 / direct=1 / weightb=1 / open_gop=0 / weightp=2 / keyint=594 / keyint_min=59 / scenecut=40 / intra_refresh=0 / rc=crf / mbtree=0 / crf=18.0 / qcomp=0.60 / qpmin=0 / qpmax=69 / qpstep=4 / ip_ratio=1.40 / pb_ratio=1.30 / aq=0
Language : English
Default : Yes
Forced : No
Audio #1
ID : 2
Format : AC-3
Format/Info : Audio Coding 3
Mode extension : CM (complete main)
Codec ID : A_AC3
Duration : 1h 15mn
Bit rate mode : Constant
Bit rate : 384 Kbps
Channel(s) : 6 channels
Channel positions : Front: L C R, Side: L R, LFE
Sampling rate : 48.0 KHz
Bit depth : 16 bits
Compression mode : Lossy
Stream size : 208 MiB (3%)
Title : Двухголосый, закадровый R5
Language : Russian
Default : Yes
Forced : No
Audio #2
ID : 3
Format : AC-3
Format/Info : Audio Coding 3
Mode extension : CM (complete main)
Codec ID : A_AC3
Duration : 1h 15mn
Bit rate mode : Constant
Bit rate : 640 Kbps
Channel(s) : 6 channels
Channel positions : Front: L C R, Side: L R, LFE
Sampling rate : 48.0 KHz
Bit depth : 16 bits
Compression mode : Lossy
Stream size : 347 MiB (5%)
Title : Оригинал
Language : English
Default : No
Forced : No
Text #1
ID : 4
Format : UTF-8
Codec ID : S_TEXT/UTF8
Codec ID/Info : UTF-8 Plain Text
Title : Полные
Language : Russian
Default : No
Forced : No
Text #2
ID : 5
Format : UTF-8
Codec ID : S_TEXT/UTF8
Codec ID/Info : UTF-8 Plain Text
Title : Полные
Language : English
Default : No
Forced : No
Menu
00:00:00.000 : en:00:00:00.000
00:03:19.074 : en:00:03:19.074
00:04:49.831 : en:00:04:49.831
00:06:34.853 : en:00:06:34.853
00:09:12.677 : en:00:09:12.677
00:11:27.729 : en:00:11:27.729
00:15:18.751 : en:00:15:18.751
00:18:55.301 : en:00:18:55.301
00:23:27.823 : en:00:23:27.823
00:26:58.283 : en:00:26:58.283
00:30:53.435 : en:00:30:53.435
00:32:51.845 : en:00:32:51.845
00:35:45.268 : en:00:35:45.268
00:39:26.447 : en:00:39:26.447
00:42:58.659 : en:00:42:58.659
00:45:46.702 : en:00:45:46.702
00:49:01.355 : en:00:49:01.355
00:53:27.704 : en:00:53:27.704
00:57:58.392 : en:00:57:58.392
00:59:48.543 : en:00:59:48.543
01:03:26.052 : en:01:03:26.052
01:05:50.697 : en:01:05:50.697
01:08:09.043 : en:01:08:09.043
01:10:35.690 : en:01:10:35.690
-
 
Показать сообщения:    

Текущее время: 25-Июл 15:36

Часовой пояс: UTC + 3


Вы не можете начинать темы
Вы не можете отвечать на сообщения
Вы не можете редактировать свои сообщения
Вы не можете удалять свои сообщения
Вы не можете голосовать в опросах
Вы не можете прикреплять файлы к сообщениям
Вы не можете скачивать файлы