Агент Ева / Ava (2020) BDRip 1080p | 60 fps Танго и Кэш / Tango & Cash (1989) BDRemux 1080p | 60 fps Властелин колец: Трилогия / The Lord of the Rings: Trilogy (2001-2003) BDRip-AVC | Extended Cut | 60 fps Ультрафиолет / Ultraviolet (2006) BDRip 1080p | 60 fps Вивариум / Vivarium (2019) BDRip 720p | 60 fps Девушка-невидимка / Shadow Girl (2019) BDRip 720p | 60 fps Не входи / The Owners(2020) BDRip 720p | 60 fps Достать ножи / Knives Out (2019) BDRip 1080p | 60 fps
  1. Longevity:
    6 years 7 months
    Posts:
    2414
    Gender:
    Male
    Долгий путь Билли Линна в перерыве футбольного матча / Billy Lynn's Long Halftime Walk (2016)
    BDRip 720p | 60 fps
    - Информация
    Название: Долгий путь Билли Линна в перерыве футбольного матча
    Оригинальное название: Billy Lynn's Long Halftime Walk
    Год выхода: 2016
    Жанр: Драма, военный
    Режиссер: Энг Ли
    Сценарий: Жан-Кристоф Кастелли, Бен Фаунтин
    Продюсер: Брайан Белл, Alexei Boltho, Саймон Корнвэлл
    В ролях: Джо Элвин, Гаррет Хедлунд, Артуро Кастро, Мэйсон Ли, Астро, Бо Напп, Исмаэль Круз, Барни Харрис, Вин Дизель, Стив Мартин
    --Сюжет:
    В 2007 году 19-летний солдат Билли Линн и его взвод вступают в бой в Ираке. Бой снимают военные журналисты, кадры расходятся по всем новостям. Билли и его боевые товарищи становятся национальными героями и возвращаются в Америку на две недели для промо-тура, кульминацией которого становится шоу в перерыве футбольного матча в День благодарения. А после него они должны снова отправиться на войну.- Страна: США, Великобритания, Китай
    Продолжительность: 01:52:45

    Файл
    Кодек: MPEG4/ISO/AVC/H.264
    Формат: MKV
    Качество: BDRip 720p | 60 fps
    Видео: 1280 x 690 (1.855) | 59.940 fps | 10.0 Мбит/сек
    Аудио 1: AC3 | 2.0 | 48 kHz | 384 kbps | 16 bit | Профессиональный многоголосый закадровый - iTunes |
    Аудио 2: AC3 | 5.1 | 48 kHz | 640 kbps | 16 bit | ENG |
    Субтитры: Русские, английские, украинские

    MedifInfo

    Видео
    Идентификатор : 1
    Формат : AVC
    Формат/Информация : Advanced Video Codec
    Профиль формата : [email protected]
    Параметр CABAC формата : Да
    Параметр ReFrames формата : 5 кадров
    Идентификатор кодека : V_MPEG4/ISO/AVC
    Продолжительность : 1 ч. 52 м.
    Битрейт : 9999 Кбит/сек
    Ширина : 1280 пикселей
    Высота : 690 пикселей
    Соотношение сторон : 1,85:1
    Режим частоты кадров : Постоянный
    Частота кадров : 59,880 кадров/сек
    Частота кадров в оригинале : 59,940 кадров/сек
    Цветовое пространство : YUV
    Субдискретизация насыщенности : 4:2:0
    Битовая глубина : 8 бит
    Тип развёртки : Прогрессивная
    Бит/(Пиксели*Кадры) : 0.189
    Размер потока : 7,71 Гбайт (89%)
    Заголовок : www.60-fps.org
    Библиотека кодирования : x264 core 148 r2638 7599210
    Настройки программы : cabac=1 / ref=5 / deblock=1:-3:-3 / analyse=0x3:0x113 / me=umh / subme=8 / psy=1 / psy_rd=1.00:0.25 / mixed_ref=1 / me_range=32 / chroma_me=1 / trellis=1 / 8x8dct=1 / cqm=0 / deadzone=6,6 / fast_pskip=1 / chroma_qp_offset=-4 / threads=12 / lookahead_threads=2 / sliced_threads=0 / nr=0 / decimate=0 / interlaced=0 / bluray_compat=0 / constrained_intra=0 / bframes=3 / b_pyramid=2 / b_adapt=2 / b_bias=0 / direct=3 / weightb=1 / open_gop=0 / weightp=2 / keyint=599 / keyint_min=59 / scenecut=40 / intra_refresh=0 / rc_lookahead=50 / rc=2pass / mbtree=1 / bitrate=9999 / ratetol=1.0 / qcomp=0.80 / qpmin=0 / qpmax=69 / qpstep=4 / cplxblur=20.0 / qblur=0.5 / vbv_maxrate=62500 / vbv_bufsize=78125 / nal_hrd=none / filler=0 / ip_ratio=1.10 / aq=1:0.50
    Default : Да
    Forced : Нет
    Аудио #1
    Идентификатор : 2
    Формат : AC-3
    Формат/Информация : Audio Coding 3
    Расширение режима : CM (complete main)
    Параметр Endianness формата : Big
    Идентификатор кодека : A_AC3
    Продолжительность : 1 ч. 52 м.
    Вид битрейта : Постоянный
    Битрейт : 384 Кбит/сек
    Каналы : 2 канала
    Расположение каналов : Front: L R
    Частота : 48,0 КГц
    Битовая глубина : 16 бит
    Метод сжатия : С потерями
    Размер потока : 310 Мбайт (3%)
    Заголовок : Профессиональный многоголосый закадровый - iTunes
    Язык : Russian
    Default : Да
    Forced : Нет
    Аудио #2
    Идентификатор : 3
    Формат : AC-3
    Формат/Информация : Audio Coding 3
    Расширение режима : CM (complete main)
    Параметр Endianness формата : Big
    Идентификатор кодека : A_AC3
    Продолжительность : 1 ч. 52 м.
    Вид битрейта : Постоянный
    Битрейт : 640 Кбит/сек
    Каналы : 6 каналов
    Расположение каналов : Front: L C R, Side: L R, LFE
    Частота : 48,0 КГц
    Битовая глубина : 16 бит
    Метод сжатия : С потерями
    Размер потока : 516 Мбайт (6%)
    Заголовок : Eng
    Язык : English
    Default : Нет
    Forced : Нет
    Текст #1
    Идентификатор : 4
    Формат : UTF-8
    Идентификатор кодека : S_TEXT/UTF8
    Идентификатор кодека/Информация : UTF-8 Plain Text
    Заголовок : iTunes
    Язык : Russian
    Default : Нет
    Forced : Нет
    Текст #2
    Идентификатор : 5
    Формат : UTF-8
    Идентификатор кодека : S_TEXT/UTF8
    Идентификатор кодека/Информация : UTF-8 Plain Text
    Заголовок : iTunes
    Язык : Ukrainian
    Default : Нет
    Forced : Нет
    Текст #3
    Идентификатор : 6
    Формат : UTF-8
    Идентификатор кодека : S_TEXT/UTF8
    Идентификатор кодека/Информация : UTF-8 Plain Text
    Заголовок : iTunes
    Язык : English
    Default : Нет
    Forced : Нет
    Меню
    00:00:00.000 : en:1
    00:06:04.906 : en:2
    00:13:20.883 : en:3
    00:20:10.291 : en:4
    00:26:23.539 : en:5
    00:31:08.781 : en:6
    00:39:04.465 : en:7
    00:48:50.925 : en:8
    00:55:57.642 : en:9
    01:04:17.350 : en:10
    01:10:15.750 : en:11
    01:17:13.250 : en:12
    01:22:07.502 : en:13
    01:29:12.259 : en:14
    01:35:20.585 : en:15
    01:42:51.534 : en:16

    Release was prepared by 60-fps.org



    Last edited by Kryl on 2017-02-24 22:44; edited 1 time in total
  2. Longevity:
    4 years 8 months
    Posts:
    1586
    Gender:
    Male
    Фильм Крутой Фильм
    24-Feb-2017 21:19 (after 10 hours)
  3. Longevity:
    4 years 6 months
    Posts:
    110
    Gender:
    Male
    Как фильм? Имеет смысл качать?
    11-Mar-2017 11:52 (after 14 days)
  4. Longevity:
    3 years 6 months
    Posts:
    1
    Gender:
    Unknown
    Hello, thanks for seeding. This board seems to be the only one to rip this movie. I'm surprised this don't get much attention because it's the only movie that came out 60fps.
    26-Oct-2017 07:16 (after 7 months 14 days)


You cannot post new topics in this forum
You cannot reply to topics in this forum
You cannot edit your posts in this forum
You cannot delete your posts in this forum
You cannot vote in polls in this forum
You cannot attach files in this forum
You cannot download files in this forum