1. Longevity:
    7 years
    Posts:
    2413
    Gender:
    Male
    Долгий путь Билли Линна в перерыве футбольного матча / Billy Lynn's Long Halftime Walk (2016)
    BDRip 720p | 60 fps
    - Информация
    Название: Долгий путь Билли Линна в перерыве футбольного матча
    Оригинальное название: Billy Lynn's Long Halftime Walk
    Год выхода: 2016
    Жанр: Драма, военный
    Режиссер: Энг Ли
    Сценарий: Жан-Кристоф Кастелли, Бен Фаунтин
    Продюсер: Брайан Белл, Alexei Boltho, Саймон Корнвэлл
    В ролях: Джо Элвин, Гаррет Хедлунд, Артуро Кастро, Мэйсон Ли, Астро, Бо Напп, Исмаэль Круз, Барни Харрис, Вин Дизель, Стив Мартин
    --Сюжет:
    В 2007 году 19-летний солдат Билли Линн и его взвод вступают в бой в Ираке. Бой снимают военные журналисты, кадры расходятся по всем новостям. Билли и его боевые товарищи становятся национальными героями и возвращаются в Америку на две недели для промо-тура, кульминацией которого становится шоу в перерыве футбольного матча в День благодарения. А после него они должны снова отправиться на войну.- Страна: США, Великобритания, Китай
    Продолжительность: 01:52:45

    Файл
    Кодек: MPEG4/ISO/AVC/H.264
    Формат: MKV
    Качество: 1080p HFR UHDRip | 60 fps
    Видео: 1920x1038 | 59.940 fps | 21.1 Мбит/сек
    Аудио 1: AC3 | 5.1 | 48 kHz | 384 kbps | 16 bit | Профессиональный многоголосый закадровый - iTunes |
    Аудио 2: DTS | 5.1 | 48 kHz | 1536 kbps | 24 bit | ENG |
    Субтитры: Russian (iTunes), Ukrainian (iTunes), English (iTunes), English (SDH)

    MedifInfo

    Video
    ID : 1
    Format : AVC
    Format/Info : Advanced Video Codec
    Format profile : [email protected]
    Format settings, CABAC : Yes
    Format settings, ReFrames : 4 frames
    Codec ID : V_MPEG4/ISO/AVC
    Duration : 1 h 52 min
    Bit rate : 21.1 Mb/s
    Width : 1 920 pixels
    Height : 1 038 pixels
    Display aspect ratio : 1.85:1
    Frame rate mode : Constant
    Frame rate : 59.940 (59940/1000) FPS
    Color space : YUV
    Chroma subsampling : 4:2:0
    Bit depth : 8 bits
    Scan type : Progressive
    Bits/(Pixel*Frame) : 0.177
    Stream size : 16.6 GiB (92%)
    Title : Billy Lynn's Long Halftime Walk (2016) - Release for HDCLUB
    Writing library : x264 core 148 r2744kMod b97ae06
    Encoding settings : cabac=1 / ref=3 / deblock=1:-3:-3 / analyse=0x3:0x113 / me=esa / subme=11 / psy=1 / fade_compensate=0.00 / psy_rd=1.00:0.00 / mixed_ref=1 / me_range=32 / chroma_me=1 / trellis=2 / 8x8dct=1 / cqm=0 / deadzone=21,11 / fast_pskip=0 / chroma_qp_offset=-2 / threads=18 / lookahead_threads=3 / sliced_threads=0 / nr=0 / decimate=0 / interlaced=0 / bluray_compat=0 / constrained_intra=0 / bframes=8 / b_pyramid=2 / b_adapt=2 / b_bias=0 / direct=3 / weightb=1 / open_gop=0 / weightp=2 / keyint=240 / keyint_min=24 / scenecut=40 / intra_refresh=0 / rc=crf / mbtree=0 / crf=16.0000 / qcomp=0.60 / qpmin=0 / qpmax=69 / qpstep=4 / ip_ratio=1.40 / pb_ratio=1.30 / aq=1:0.75
    Language : English
    Default : Yes
    Forced : No
    Audio #1
    ID : 2
    Format : AC-3
    Format/Info : Audio Coding 3
    Mode extension : CM (complete main)
    Format settings, Endianness : Big
    Codec ID : A_AC3
    Duration : 1 h 52 min
    Bit rate mode : Constant
    Bit rate : 384 kb/s
    Channel(s) : 6 channels
    Channel positions : Front: L C R, Side: L R, LFE
    Sampling rate : 48.0 kHz
    Frame rate : 31.250 FPS (1536 spf)
    Bit depth : 16 bits
    Compression mode : Lossy
    Stream size : 310 MiB (2%)
    Title : AC3 5.1 @ 384 kbps - MVO, iTunes
    Language : Russian
    Default : Yes
    Forced : No
    Audio #2
    ID : 3
    Format : DTS
    Format/Info : Digital Theater Systems
    Mode : 16
    Format settings, Endianness : Big
    Codec ID : A_DTS
    Duration : 1 h 52 min
    Bit rate mode : Constant
    Bit rate : 1 509 kb/s
    Channel(s) : 6 channels
    Channel positions : Front: L C R, Side: L R, LFE
    Sampling rate : 48.0 kHz
    Frame rate : 93.750 FPS (512 spf)
    Bit depth : 24 bits
    Compression mode : Lossy
    Stream size : 1.19 GiB (7%)
    Title : DTS 5.1 @ 1536 kbps
    Language : English
    Default : No
    Forced : No
    Text #1
    ID : 4
    Format : UTF-8
    Codec ID : S_TEXT/UTF8
    Codec ID/Info : UTF-8 Plain Text
    Duration : 1 h 50 min
    Bit rate : 126 b/s
    Count of elements : 1929
    Stream size : 102 KiB (0%)
    Title : iTunes
    Language : Russian
    Default : No
    Forced : No
    Text #2
    ID : 5
    Format : UTF-8
    Codec ID : S_TEXT/UTF8
    Codec ID/Info : UTF-8 Plain Text
    Duration : 1 h 50 min
    Bit rate : 123 b/s
    Count of elements : 1928
    Stream size : 100 KiB (0%)
    Title : iTunes
    Language : Ukrainian
    Default : No
    Forced : No
    Text #3
    ID : 6
    Format : UTF-8
    Codec ID : S_TEXT/UTF8
    Codec ID/Info : UTF-8 Plain Text
    Duration : 1 h 45 min
    Bit rate : 88 b/s
    Count of elements : 1908
    Stream size : 68.5 KiB (0%)
    Title : iTunes
    Language : English
    Default : No
    Forced : No
    Text #4
    ID : 7
    Format : UTF-8
    Codec ID : S_TEXT/UTF8
    Codec ID/Info : UTF-8 Plain Text
    Duration : 1 h 45 min
    Bit rate : 96 b/s
    Count of elements : 2153
    Stream size : 75.1 KiB (0%)
    Title : SDH
    Language : English
    Default : No
    Forced : No
    Menu
    00:00:00.000 : en:00:00:00.000
    00:06:05.865 : en:00:06:05.865
    00:13:21.884 : en:00:13:21.884
    00:20:11.293 : en:00:20:11.293
    00:26:24.541 : en:00:26:24.541
    00:31:10.410 : en:00:31:10.410
    00:39:05.426 : en:00:39:05.426
    00:48:51.929 : en:00:48:51.929
    00:55:58.605 : en:00:55:58.605
    01:04:18.354 : en:01:04:18.354
    01:10:16.712 : en:01:10:16.712
    01:17:14.630 : en:01:17:14.630
    01:22:08.507 : en:01:22:08.507
    01:29:13.265 : en:01:29:13.265
    01:35:21.591 : en:01:35:21.591
    01:42:52.458 : en:01:42:52.458


    Last edited by Kryl on 2017-05-03 07:09; edited 1 time in total
  2. Longevity:
    6 years 2 months
    Posts:
    149
    Gender:
    Male
    Большое Спасибо :)
    11-Mar-2017 14:30 (after 5 hours)
  3. Longevity:
    5 years 1 month
    Posts:
    10
    Gender:
    Unknown
    Можете ли вы, пожалуйста, уменьшить его до 720p и сделать его менее 8 ГБ...
    11-Mar-2017 18:35 (after 4 hours)
  4. Longevity:
    7 years
    Posts:
    2413
    Gender:
    Male
    7564Можете ли вы, пожалуйста, уменьшить его до 720p и сделать его менее 8 ГБ...
    https://60-fps.org/viewtopic.php?t=2562
    11-Mar-2017 18:45 (after 9 minutes)
  5. Longevity:
    5 years 1 month
    Posts:
    10
    Gender:
    Unknown
    Да, но это интерполировано, я думаю, что это верно 60 кадров в секунду, так что, возможно, вы могли бы уменьшить это до 720p ... Грущу
    11-Mar-2017 19:22 (after 36 minutes)
  6. Longevity:
    7 years
    Posts:
    2413
    Gender:
    Male
    7566Да, но это интерполировано, я думаю, что это верно 60 кадров в секунду, так что, возможно, вы могли бы уменьшить это до 720p ... Грущу
    не , на это нету времени ... итак две версии этого фильма на сайте ..
    11-Mar-2017 19:34 (after 11 minutes)


You cannot post new topics in this forum
You cannot reply to topics in this forum
You cannot edit your posts in this forum
You cannot delete your posts in this forum
You cannot vote in polls in this forum
You cannot attach files in this forum
You cannot download files in this forum