1. Longevity:
    7 years
    Posts:
    2413
    Gender:
    Male
    «Eight years ago she lost her memory. Now, a detective must help her remember the past before it buries them both. What's forgotten is not always gone»- Информация
    Название: Долгий поцелуй на ночь
    Оригинальное название: The Long Kiss Goodnight
    Год выхода: 1996
    Жанр: Боевик, триллер, драма, криминал, детектив
    Режиссер: Ренни Харлин
    Сценарий: Шейн Блэк
    Продюсер: Стефани Остин, Шейн Блэк, Ренни Харлин
    В ролях: Джина Дэвис, Сэмюэл Л. Джексон, Патрик Малахайд, Крэйг Бирко, Брайан Кокс, Дэвид Морс, Дж. Д. Спрэдлин, Том Амандес, Ивонн Зима, Мелина Канакаредес, Алан Норт
    --Сюжет:
    8 лет назад школьная учительница Саманта Кейн перенесла полную потерю памяти. Она живет с 8-летней дочкой счастливой семейной жизнью и не подозревает о своем кровавом прошлом, ведь когда-то эта красивая женщина была агентом Чарли Бэлтимор, выполнявшим секретные заказы ЦРУ.
    Шокированная неожиданным возвращением некоторых навыков и психологической подготовки профессионального киллера, Саманта пытается разобраться в своем прошлом. Детектив Митч Хенесси, начавший с расследования жизни простой учительницы, оказывается втянутым вместе с Самантой в секретную операцию ЦРУ.
    - Страна: США
    Продолжительность: 02:00:33

    Файл
    Кодек: MPEG4/ISO/AVC/H.264
    Формат: MKV
    Качество: BDRip 720p | 60 fps
    Видео: 1280 x 534 (2.397) | 59.940 fps | 10.0 Мбит/сек
    Аудио 1: AC3 | 5.1 | 48 kHz | 640 kbps | 16 bit | Профессиональный многоголосый - Киномания| |
    Аудио 2: AC3 | 5.1 | 48 kHz | 640 kbps | 16 bit | Профессиональный двухголосый - Гланц и Королева| |
    Аудио 3: AC3 | 5.1 | 48 kHz | 640 kbps | 16 bit | Авторский одноголосый закадровый - А.Гаврилов|| |
    Аудио 4: AC3 | 5.1 | 48 kHz | 640 kbps | 16 bit | Авторский одноголосый закадровый - Ю.Живов| |
    Аудио 5: AC3 | 5.1 | 48 kHz | 448 kbps | 16 bit | Профессиональный двухголосый - Союз-Видео R5| |
    Аудио 6: AC3 | 2.0 | 48 kHz | 192 kbps | 16 bit | Профессиональный двухголосый - Союз-Видео VHS| |
    Аудио 7: AC3 | 5.1 | 48 kHz | 384 kbps | 16 bit | Профессиональный одноголосый закадровый - диктор CDV| |
    Аудио 8: AC3 | 2.0 | 48 kHz | 192 kbps | 16 bit | Украинский - перевод канала ICTV |
    Аудио 9: AC3 | 5.1 | 48 kHz | 640 kbps | 16 bit | English |
    Субтитры: Русские (3 варианта), английские

    С каким переводом смотреть?

    Те, у кого фильм ассоциируется с прошлым, наверняка будут смотреть фильм с теми переводами, которые они помнят, не зависимо от того, насколько они правильны.
    А для тех, кто не видел сообщу, что фильм в оригинале насыщен как руганьем, так и пошлятиной, поэтому приведу один горяченький отрывок героя Семюел Джексона из начала фильма, по которому можно будет более-менее выбрать для себя подходящее:
    Don't give me attitude, sir.
    See, you're assuming, I won't shoot your sorry ass, and everyone knows,when you make an assumption, you make an ass out of "u" and "mption".
    Now, I'm Sergeant Madigan,Vice, and if you do cop a 'tude, jerk-off,I wilI see to it you spend the next 10 years in prison getting ass-fucked.
    If the case is thrown out 'cause my arrest was too violent, I will personally hire men to ass-fuck you for 10 years.
    So if you're an ass-fucking fan, you go ahead and mouth off.
    Meanwhile, you're under arrest for the crime of prostitution.
    Только, пожалуйста, без этого, сэр.
    Ты думаешь что я стрелять в тебя не буду? Поверь лучше не искушать судьбу.
    Я сержант Мэдиган из полиции нравов. Будешь валять дурака, я сделаю так, что в тюрьме тебя будут трахать в задницу. Даже если ты не сядешь я лично найму тех, кто будет трахать тебя в задницу следующие десять лет.
    Если тебе нравится анальный секс, то можешь болтать.
    А пока ты под арестом. (Киномания)
    Лучше не дергайтесь, сэр.
    Вы считаете, что я не подстрелю вас, однако все знают, что думал петух, пока не попал в суп.
    Я сержант Мэдиган, отдел нравов, так что если будешь шалить, козел, следующие 10 лет тебя будут драть в жопу в тюряге. А если дело закроют из-за проявления насилия при аресте, я лично найму людей. которые будут 10 лет драть тебя в жопу.
    Так что если ты это дело любишь, можешь начать возмущаться.
    А пока-что ты арестован за занятие проституцией. (Гланц и Королева)
    Не дергайтесь сэр.
    Вы думаете я не прострелю вам задницу? Проблема в том, что у вас ни как не получается думать.
    Я сержант Мэдиган, полиция нравов, резкое движение и в течение следующих 10 лет вашу задницу будут драть в тюрьме.
    Если суд решит, что я превысил полномочия я сам найму человека, который будет драть тебя 10 лет. если тебе это по нраву - можешь вякнуть.
    Давай! Нет?
    А пока вы арестованы за проституцию. (Союз-Видео, DVD, Александр Новиков и Ирина Маликова)
    Ну ка полегче сэр.
    Я вполне мог продырявить твою бошку и нечего корчить из себя храбреца, все равно выглядишь дураком.
    Я сержант Мэдиган из отряда по борьбе с проституцией и наркотиками. Если ты будешь хамить мне я усажу тебя на 10 лет за решетку.
    А потом если суд выяснит что я превысил свои полномочия, я найму мужика и он 10 лет подряд будет бить тебе рожу.
    Так что лучше тебе заткнуться.
    Я арестовываю вас за проституцию (Союз-Видео, VHS, Тарадайкин-Гаспарова)
    Не двигаться, сэр.
    Вы думаете я не буду стрелять в вас в жопу, так? Напрасно вы так думаете.
    Я сержант Мэдиган, только попробуйте мне здесь дернуться я вас засажу на 10 лет где вас будут трахать в задницу, понятно? А если вас вдруг не посадят, потому-что я использовал излишнее насилие при аресте, я найму двух мудаков, которые будут вас трахать в задницу, понятно?
    Хотите, чтоб вас трахали в задницу, нет?
    Тогда вы арестованы, понятно? За проституцию (А. Гаврилов)
    Только пожалуйста без этого сэр.
    Ты думаешь, что я стрелять в тебя не буду? Но все знают, что догадки иногда человека губят.
    Я сержант Мэдиган из полиции нравов. Если ты будешь сейчас валять дурака я сделаю так, чтобы тебя трахали в задницу в тюрьме. Если даже дело не будет возбуждено по причине насильственного ареста, я лично найму тех. кто будет трахать тебя в задницу следующие 10 лет.
    Так что если тебе нравится анальный секс, можешь открыть рот.
    А пока ты арестован за развратный образ жизни. (Ю. Живов)
    Не провоцируйте меня сэр.
    Вы конечно думаете, что я не прострелю вашу жалкую задницу, но смотрите как бы вам пришлось не пожалеть. что я этого не сделал.
    Я сержант Мэдиган, если вы будете сопротивляться, я прослежу за тем, чтобы ближайшие 10 лет вы провели за решеткой и тогда ваша задница испытает кое-что похуже пуль. Если же делу не дадут законного хода из-за насилия при аресте, то я найму мужиков, которые на ближайшие 10 лет станут вашими настоящими друзьями.
    Так вот, если вы поклонник нетрадиционного секса, то вам и карты в руки.
    А пока вы арестованы за аморальное поведение (Диктор CDV)

    MedifInfo

    Видео
    Идентификатор : 1
    Формат : AVC
    Формат/Информация : Advanced Video Codec
    Профиль формата : [email protected]
    Параметр CABAC формата : Да
    Параметр ReFrames формата : 3 кадра
    Идентификатор кодека : V_MPEG4/ISO/AVC
    Продолжительность : 2 ч. 0 м.
    Вид битрейта : Переменный
    Битрейт : 9694 Кбит/сек
    Максимальный битрейт : 10000 Кбит/сек
    Ширина : 1280 пикселей
    Высота : 534 пикселя
    Соотношение сторон : 2,40:1
    Режим частоты кадров : Постоянный
    Частота кадров : 59,880 кадров/сек
    Частота кадров в оригинале : 59,940 кадров/сек
    Стандарт вещания : PAL
    Цветовое пространство : YUV
    Субдискретизация насыщенности : 4:2:0
    Битовая глубина : 8 бит
    Тип развёртки : Прогрессивная
    Бит/(Пиксели*Кадры) : 0.237
    Размер потока : 8,16 Гбайт (67%)
    Заголовок : www.60-fps.org
    Язык : English
    Default : Да
    Forced : Нет
    Основные цвета : BT.601 NTSC
    Характеристики трансфера : BT.601
    Коэффициенты матрицы : BT.601
    colour_range : Limited
    Аудио #1
    Идентификатор : 2
    Формат : AC-3
    Формат/Информация : Audio Coding 3
    Расширение режима : CM (complete main)
    Параметр Endianness формата : Big
    Идентификатор кодека : A_AC3
    Продолжительность : 2 ч. 0 м.
    Вид битрейта : Постоянный
    Битрейт : 640 Кбит/сек
    Каналы : 6 каналов
    Расположение каналов : Front: L C R, Side: L R, LFE
    Частота : 48,0 КГц
    Битовая глубина : 16 бит
    Метод сжатия : С потерями
    Размер потока : 552 Мбайт (4%)
    Заголовок : Профессиональный многоголосый - Киномания
    Язык : Russian
    Default : Да
    Forced : Нет
    Аудио #2
    Идентификатор : 3
    Формат : AC-3
    Формат/Информация : Audio Coding 3
    Расширение режима : CM (complete main)
    Параметр Endianness формата : Big
    Идентификатор кодека : A_AC3
    Продолжительность : 2 ч. 0 м.
    Вид битрейта : Постоянный
    Битрейт : 640 Кбит/сек
    Каналы : 6 каналов
    Расположение каналов : Front: L C R, Side: L R, LFE
    Частота : 48,0 КГц
    Битовая глубина : 16 бит
    Метод сжатия : С потерями
    Размер потока : 552 Мбайт (4%)
    Заголовок : Профессиональный двухголосый - Гланц и Королева
    Язык : Russian
    Default : Нет
    Forced : Нет
    Аудио #3
    Идентификатор : 4
    Формат : AC-3
    Формат/Информация : Audio Coding 3
    Расширение режима : CM (complete main)
    Параметр Endianness формата : Big
    Идентификатор кодека : A_AC3
    Продолжительность : 2 ч. 0 м.
    Вид битрейта : Постоянный
    Битрейт : 640 Кбит/сек
    Каналы : 6 каналов
    Расположение каналов : Front: L C R, Side: L R, LFE
    Частота : 48,0 КГц
    Битовая глубина : 16 бит
    Метод сжатия : С потерями
    Размер потока : 552 Мбайт (4%)
    Заголовок : Авторский одноголосый закадровый - А.Гаврилов
    Язык : Russian
    Default : Нет
    Forced : Нет
    Аудио #4
    Идентификатор : 5
    Формат : AC-3
    Формат/Информация : Audio Coding 3
    Расширение режима : CM (complete main)
    Параметр Endianness формата : Big
    Идентификатор кодека : A_AC3
    Продолжительность : 2 ч. 0 м.
    Вид битрейта : Постоянный
    Битрейт : 640 Кбит/сек
    Каналы : 6 каналов
    Расположение каналов : Front: L C R, Side: L R, LFE
    Частота : 48,0 КГц
    Битовая глубина : 16 бит
    Метод сжатия : С потерями
    Размер потока : 552 Мбайт (4%)
    Заголовок : Авторский одноголосый закадровый - Ю.Живов
    Язык : Russian
    Default : Нет
    Forced : Нет
    Аудио #5
    Идентификатор : 6
    Формат : AC-3
    Формат/Информация : Audio Coding 3
    Расширение режима : CM (complete main)
    Параметр Endianness формата : Big
    Идентификатор кодека : A_AC3
    Продолжительность : 2 ч. 0 м.
    Вид битрейта : Постоянный
    Битрейт : 192 Кбит/сек
    Каналы : 2 канала
    Расположение каналов : Front: L R
    Частота : 48,0 КГц
    Битовая глубина : 16 бит
    Метод сжатия : С потерями
    Размер потока : 166 Мбайт (1%)
    Заголовок : Профессиональный двухголосый - Союз-Видео R5
    Язык : Russian
    Default : Нет
    Forced : Нет
    Аудио #6
    Идентификатор : 7
    Формат : AC-3
    Формат/Информация : Audio Coding 3
    Расширение режима : CM (complete main)
    Параметр Endianness формата : Big
    Идентификатор кодека : A_AC3
    Продолжительность : 2 ч. 0 м.
    Вид битрейта : Постоянный
    Битрейт : 448 Кбит/сек
    Каналы : 6 каналов
    Расположение каналов : Front: L C R, Side: L R, LFE
    Частота : 48,0 КГц
    Битовая глубина : 16 бит
    Метод сжатия : С потерями
    Размер потока : 386 Мбайт (3%)
    Заголовок : Профессиональный двухголосый - Союз-Видео VHS
    Язык : Russian
    Default : Нет
    Forced : Нет
    Аудио #7
    Идентификатор : 8
    Формат : AC-3
    Формат/Информация : Audio Coding 3
    Расширение режима : CM (complete main)
    Параметр Endianness формата : Big
    Идентификатор кодека : A_AC3
    Продолжительность : 2 ч. 0 м.
    Вид битрейта : Постоянный
    Битрейт : 384 Кбит/сек
    Каналы : 6 каналов
    Расположение каналов : Front: L C R, Side: L R, LFE
    Частота : 48,0 КГц
    Битовая глубина : 16 бит
    Метод сжатия : С потерями
    Размер потока : 331 Мбайт (3%)
    Заголовок : Профессиональный одноголосый закадровый - диктор CDV
    Язык : Russian
    Default : Нет
    Forced : Нет
    Аудио #8
    Идентификатор : 9
    Формат : AC-3
    Формат/Информация : Audio Coding 3
    Расширение режима : CM (complete main)
    Параметр Endianness формата : Big
    Идентификатор кодека : A_AC3
    Продолжительность : 2 ч. 0 м.
    Вид битрейта : Постоянный
    Битрейт : 192 Кбит/сек
    Каналы : 2 канала
    Расположение каналов : Front: L R
    Частота : 48,0 КГц
    Битовая глубина : 16 бит
    Метод сжатия : С потерями
    Размер потока : 166 Мбайт (1%)
    Заголовок : Украинский - перевод канала ICTV
    Язык : Ukrainian
    Default : Нет
    Forced : Нет
    Аудио #9
    Идентификатор : 10
    Формат : AC-3
    Формат/Информация : Audio Coding 3
    Расширение режима : CM (complete main)
    Параметр Endianness формата : Big
    Идентификатор кодека : A_AC3
    Продолжительность : 2 ч. 0 м.
    Вид битрейта : Постоянный
    Битрейт : 640 Кбит/сек
    Каналы : 6 каналов
    Расположение каналов : Front: L C R, Side: L R, LFE
    Частота : 48,0 КГц
    Битовая глубина : 16 бит
    Метод сжатия : С потерями
    Размер потока : 552 Мбайт (4%)
    Заголовок : English
    Язык : English
    Default : Нет
    Forced : Нет
    Текст #1
    Идентификатор : 11
    Формат : UTF-8
    Идентификатор кодека : S_TEXT/UTF8
    Идентификатор кодека/Информация : UTF-8 Plain Text
    Заголовок : Киномания
    Язык : Russian
    Default : Нет
    Forced : Нет
    Текст #2
    Идентификатор : 12
    Формат : UTF-8
    Идентификатор кодека : S_TEXT/UTF8
    Идентификатор кодека/Информация : UTF-8 Plain Text
    Заголовок : Пристиж
    Язык : Russian
    Default : Нет
    Forced : Нет
    Текст #3
    Идентификатор : 13
    Формат : UTF-8
    Идентификатор кодека : S_TEXT/UTF8
    Идентификатор кодека/Информация : UTF-8 Plain Text
    Заголовок : SvDVD
    Язык : Russian
    Default : Нет
    Forced : Нет
    Текст #4
    Идентификатор : 14
    Формат : UTF-8
    Идентификатор кодека : S_TEXT/UTF8
    Идентификатор кодека/Информация : UTF-8 Plain Text
    Язык : English
    Default : Нет
    Forced : Нет
    Меню
    00:00:00.000 : en:Opening Credits
    00:09:05.920 : en:Main Title
    00:22:07.034 : en:Bed Agreement
    00:32:35.870 : en:Party Crashers
    00:47:33.934 : en:Eye-Opening Chat
    01:03:52.703 : en:Mom's Cooking
    01:15:14.593 : en:A Cold, Hard Lesson
    01:28:16.207 : en:Visitor From the Past
    01:36:53.849 : en:Quest for the Truth
    01:47:25.021 : en:Calling Information

    Release was prepared by 60-fps.org

  2. Longevity:
    5 years 2 months
    Posts:
    2
    Gender:
    Unknown
    Спасибо,давно ждал!
    12-Jun-2017 08:38 (after 2 hours 15 minutes)
  3. Longevity:
    1 year 10 months
    Posts:
    5
    Gender:
    Unknown
    РАЗДАЙТЕ ПОЖАЛУЙСТА ФИЛЬМ!
    22-Oct-2020 18:24 (after 3 years 4 months)


You cannot post new topics in this forum
You cannot reply to topics in this forum
You cannot edit your posts in this forum
You cannot delete your posts in this forum
You cannot vote in polls in this forum
You cannot attach files in this forum
You cannot download files in this forum