VIP

Интерстеллар / Interstellar (2014) BDRip 1080p | IMAX Edition | 60fps Проект Power / Project Power (2020) WEBRip 1080p | 60 fps Новые мутанты / The New Mutants (2020) BDRip 1080p | 60 fps Доктор Стрэндж / Doctor Strange (2016) BDRip 1080p | 60 fps Грань будущего / Edge of Tomorrow (2014) BDRip 1080p | 60 fps Бессмертная гвардия / The Old Guard (2020) WEBRip 1080p | 60 fps Тор: Рагнарёк / Thor: Ragnarok (2017) BDRip 1080p | 60 fps Люси / Lucy (2014) BDRip 1080p | 60 fps
  1. bot

    Longevity:
    6 years 5 months
    Posts:
    410
    Gender:
    Unknown
    «За гранью сознания лежит новая реальность»- Информация
    Название: Доктор Стрэндж
    Оригинальное название: Doctor Strange
    Год выхода: 2016
    Жанр: Фантастика, фэнтези, боевик, приключения
    Режиссер: Скотт Дерриксон
    Сценарий: Джон Спэйтс, Скотт Дерриксон, С. Роберт Каргилл
    Продюсер: Виктория Алонсо, Стивен Бруссар, Луис Д’Эспозито
    В ролях: Бенедикт Камбербэтч, Тильда Суинтон, Мадс Миккельсен, Чиветел Эджиофор, Рэйчел МакАдамс, Бенедикт Вонг, Майкл Стулбарг, Бенджамин Брэтт, Скотт Эдкинс, Зара Питиан
    --Сюжет:
    Страшная автокатастрофа поставила крест на карьере успешного нейрохирурга Доктора Стрэнджа. Отчаявшись, он отправляется в путешествие в поисках исцеления и открывает в себе невероятные способности к трансформации пространства и времени. Теперь он — связующее звено между параллельными измерениями, а его миссия — защищать жителей Земли и противодействовать Злу, какое бы обличие оно ни принимало.- Страна: США
    Продолжительность: 01:55:15

    Файл
    Кодек: MPEG4/ISO/AVC/H.264
    Формат: MKV
    Качество: BDRip 720p | 60 fps
    Видео: 1280x536 | 59.940 fps | 3.9 Мбит/сек
    Аудио 1: AC3 | 5.1 | 48 kHz | 640 kbps | 16 bit | Дубляж |
    Аудио 2: AC3 | 5.1 | 48 kHz | 640 kbps | 16 bit | ENG |
    Субтитры: Русские, eng

    MedifInfo

    Video
    ID : 1
    Format : AVC
    Format/Info : Advanced Video Codec
    Format profile : [email protected]
    Format settings, CABAC : Yes
    Format settings, ReFrames : 9 frames
    Codec ID : V_MPEG4/ISO/AVC
    Duration : 1 h 54 min
    Bit rate : 3 969 kb/s
    Width : 1 280 pixels
    Height : 536 pixels
    Display aspect ratio : 2.40:1
    Frame rate mode : Constant
    Frame rate : 59.940 (60000/1001) FPS
    Color space : YUV
    Chroma subsampling : 4:2:0
    Bit depth : 8 bits
    Scan type : Progressive
    Bits/(Pixel*Frame) : 0.097
    Stream size : 3.19 GiB (74%)
    Writing library : x264 core 146 r2538 121396c
    Encoding settings : cabac=1 / ref=9 / deblock=1:0:0 / analyse=0x3:0x113 / me=umh / subme=10 / psy=1 / psy_rd=1.00:0.00 / mixed_ref=1 / me_range=24 / chroma_me=1 / trellis=2 / 8x8dct=1 / cqm=0 / deadzone=21,11 / fast_pskip=0 / chroma_qp_offset=-2 / threads=12 / lookahead_threads=1 / sliced_threads=0 / nr=0 / decimate=1 / interlaced=0 / bluray_compat=0 / constrained_intra=0 / bframes=5 / b_pyramid=2 / b_adapt=2 / b_bias=0 / direct=3 / weightb=1 / open_gop=0 / weightp=2 / keyint=250 / keyint_min=25 / scenecut=40 / intra_refresh=0 / rc_lookahead=40 / rc=crf / mbtree=0 / crf=17.5 / qcomp=0.60 / qpmin=0 / qpmax=69 / qpstep=4 / vbv_maxrate=14000 / vbv_bufsize=14000 / crf_max=0.0 / nal_hrd=none / filler=0 / ip_ratio=1.40 / pb_ratio=1.30 / aq=3:1.00
    Language : English
    Default : Yes
    Forced : No
    Audio #1
    ID : 2
    Format : AC-3
    Format/Info : Audio Coding 3
    Mode extension : CM (complete main)
    Format settings, Endianness : Big
    Codec ID : A_AC3
    Duration : 1 h 54 min
    Bit rate mode : Constant
    Bit rate : 640 kb/s
    Channel(s) : 6 channels
    Channel positions : Front: L C R, Side: L R, LFE
    Sampling rate : 48.0 kHz
    Frame rate : 31.250 FPS (1536 spf)
    Bit depth : 16 bits
    Compression mode : Lossy
    Stream size : 526 MiB (12%)
    Title : Dub
    Language : Russian
    Default : Yes
    Forced : No
    Audio #2
    ID : 3
    Format : AC-3
    Format/Info : Audio Coding 3
    Mode extension : CM (complete main)
    Format settings, Endianness : Big
    Codec ID : A_AC3
    Duration : 1 h 54 min
    Bit rate mode : Constant
    Bit rate : 640 kb/s
    Channel(s) : 6 channels
    Channel positions : Front: L C R, Side: L R, LFE
    Sampling rate : 48.0 kHz
    Frame rate : 31.250 FPS (1536 spf)
    Bit depth : 16 bits
    Compression mode : Lossy
    Stream size : 526 MiB (12%)
    Title : Eng
    Language : English
    Default : No
    Forced : No
    Text #1
    ID : 4
    Format : UTF-8
    Codec ID : S_TEXT/UTF8
    Codec ID/Info : UTF-8 Plain Text
    Title : Rus forced
    Language : Russian
    Default : Yes
    Forced : Yes
    Text #2
    ID : 5
    Format : UTF-8
    Codec ID : S_TEXT/UTF8
    Codec ID/Info : UTF-8 Plain Text
    Title : Rus full
    Language : Russian
    Default : No
    Forced : No
    Text #3
    ID : 6
    Format : UTF-8
    Codec ID : S_TEXT/UTF8
    Codec ID/Info : UTF-8 Plain Text
    Title : Eng full
    Language : English
    Default : No
    Forced : No
    Menu
    00:00:00.000 : :Prologue
    00:04:34.566 : :The Good Doctor
    00:10:16.825 : :Medicine And Mania
    00:18:32.153 : :Kamar-Taj
    00:24:37.017 : :Open Your Eye
    00:31:40.482 : :The Mystic Arts
    00:38:33.811 : :Surrender
    00:43:16.135 : :Infinite Dangers
    00:48:24.527 : :Eye of Agamotto
    00:55:34.498 : :Sanctum Siege
    01:05:04.359 : :Astral Battle
    01:12:38.437 : :Manhattan Mirror Dimension
    01:22:14.346 : :It's Not About You
    01:28:28.637 : :Defending Hong Kong
    01:35:00.904 : :The Dark Dimension
    01:45:06.509 : :End Credits
  2. Longevity:
    3 years 11 months
    Posts:
    9
    Gender:
    Male
    У раздачи Доктор Стрэндж / Doctor Strange (2016) BDRip 720p | 60 fps объёмом 4,3Gb качество картинки хуже, чем у
    подобной раздачи объёмом 8,81Gb? Или всё-таки 4,3GB в формате HEVC? Сомневаюсь
    Где собака-то "порылась"? Удивляюсь
  3. Longevity:
    6 years 5 months
    Posts:
    2414
    Gender:
    Male
    7608У раздачи Доктор Стрэндж / Doctor Strange (2016) BDRip 720p | 60 fps объёмом 4,3Gb качество картинки хуже, чем у
    подобной раздачи объёмом 8,81Gb? Или всё-таки 4,3GB в формате HEVC? Сомневаюсь
    Где собака-то "порылась"? Удивляюсь
    HEVC _ом .. . Тут и не пахло , это раздача с рутора , от говнорелизёров , которые тупо не понимают что делают , НО считают что так правильно .
    21-Mar-2017 21:44 (after 6 minutes)
  4. Longevity:
    3 years 11 months
    Posts:
    9
    Gender:
    Male
    То бишь на будущее: видео: ~3.9 Мбит/сек лучше не качать для просмотра на TV HD 720?
    21-Mar-2017 21:58 (after 14 minutes)
  5. Longevity:
    6 years 5 months
    Posts:
    2414
    Gender:
    Male
    7610То бишь на будущее: видео: ~3.9 Мбит/сек лучше не качать для просмотра на TV HD 720?
    Ну это дело сугубо личное )))) Но мыслите правильно )))
    21-Mar-2017 21:59 (after 1 minute)


You cannot post new topics in this forum
You cannot reply to topics in this forum
You cannot edit your posts in this forum
You cannot delete your posts in this forum
You cannot vote in polls in this forum
You cannot attach files in this forum
You cannot download files in this forum