[Цитировать]
Kryl

«За гранью сознания лежит новая реальность»- Информация
Название: Доктор Стрэндж
Оригинальное название: Doctor Strange
Год выхода: 2016
Жанр: Фантастика, фэнтези, боевик, приключения
Режиссер: Скотт Дерриксон
Сценарий: Джон Спэйтс, Скотт Дерриксон, С. Роберт Каргилл
Продюсер: Виктория Алонсо, Стивен Бруссар, Луис Д’Эспозито
В ролях: Бенедикт Камбербэтч, Тильда Суинтон, Мадс Миккельсен, Чиветел Эджиофор, Рэйчел МакАдамс, Бенедикт Вонг, Майкл Стулбарг, Бенджамин Брэтт, Скотт Эдкинс, Зара Питиан
--Сюжет:
Страшная автокатастрофа поставила крест на карьере успешного нейрохирурга Доктора Стрэнджа. Отчаявшись, он отправляется в путешествие в поисках исцеления и открывает в себе невероятные способности к трансформации пространства и времени. Теперь он — связующее звено между параллельными измерениями, а его миссия — защищать жителей Земли и противодействовать Злу, какое бы обличие оно ни принимало.- Страна: США
Продолжительность: 01:55:15

Файл
Кодек: MPEG4/ISO/AVC/H.264
Формат: MKV
Качество: BDRip 1080p | 60 fps
Видео: 1920 x 800 (2.400) | 59.940 fps | 25.0 Мбит/сек
Аудио 1: AC3 | 5.1 | 48 kHz | 384 kbps | 16 bit | Дубляж - iTunes |
Аудио 2: AC3 | 5.1 | 48 kHz | 640 kbps | 16 bit | ENG |
Субтитры: Русские, eng

MedifInfo

Видео
Идентификатор : 1
Формат : AVC
Формат/Информация : Advanced Video Codec
Профиль формата : High@L4.1
Параметр CABAC формата : Да
Параметр ReFrames формата : 5 кадров
Идентификатор кодека : V_MPEG4/ISO/AVC
Продолжительность : 1 ч. 55 м.
Битрейт : 25,0 Мбит/сек
Ширина : 1920 пикселей
Высота : 800 пикселей
Соотношение сторон : 2,40:1
Режим частоты кадров : Постоянный
Частота кадров : 59,880 кадров/сек
Частота кадров в оригинале : 59,940 кадров/сек
Цветовое пространство : YUV
Субдискретизация насыщенности : 4:2:0
Битовая глубина : 8 бит
Тип развёртки : Прогрессивная
Бит/(Пиксели*Кадры) : 0.272
Размер потока : 19,7 Гбайт (94%)
Заголовок : www.60-fps.org
Библиотека кодирования : x264 core 148 r2638 7599210
Настройки программы : cabac=1 / ref=5 / deblock=1:-3:-3 / analyse=0x3:0x113 / me=umh / subme=8 / psy=1 / psy_rd=1.00:0.25 / mixed_ref=1 / me_range=32 / chroma_me=1 / trellis=1 / 8x8dct=1 / cqm=0 / deadzone=6,6 / fast_pskip=1 / chroma_qp_offset=-4 / threads=12 / lookahead_threads=2 / sliced_threads=0 / nr=0 / decimate=0 / interlaced=0 / bluray_compat=0 / constrained_intra=0 / bframes=3 / b_pyramid=2 / b_adapt=2 / b_bias=0 / direct=3 / weightb=1 / open_gop=0 / weightp=2 / keyint=599 / keyint_min=59 / scenecut=40 / intra_refresh=0 / rc_lookahead=50 / rc=2pass / mbtree=1 / bitrate=24999 / ratetol=1.0 / qcomp=0.80 / qpmin=0 / qpmax=69 / qpstep=4 / cplxblur=20.0 / qblur=0.5 / vbv_maxrate=62500 / vbv_bufsize=78125 / nal_hrd=none / filler=0 / ip_ratio=1.10 / aq=1:0.50
Default : Да
Forced : Нет
Аудио #1
Идентификатор : 2
Формат : AC-3
Формат/Информация : Audio Coding 3
Расширение режима : CM (complete main)
Параметр Endianness формата : Big
Идентификатор кодека : A_AC3
Продолжительность : 1 ч. 55 м.
Вид битрейта : Постоянный
Битрейт : 384 Кбит/сек
Каналы : 6 каналов
Расположение каналов : Front: L C R, Side: L R, LFE
Частота : 48,0 КГц
Битовая глубина : 16 бит
Метод сжатия : С потерями
Размер потока : 317 Мбайт (1%)
Заголовок : Дубляж - iTunes
Язык : Russian
Default : Да
Forced : Нет
Аудио #2
Идентификатор : 3
Формат : AC-3
Формат/Информация : Audio Coding 3
Расширение режима : CM (complete main)
Параметр Endianness формата : Big
Идентификатор кодека : A_AC3
Продолжительность : 1 ч. 55 м.
Вид битрейта : Постоянный
Битрейт : 640 Кбит/сек
Каналы : 6 каналов
Расположение каналов : Front: L C R, Side: L R, LFE
Частота : 48,0 КГц
Битовая глубина : 16 бит
Метод сжатия : С потерями
Размер потока : 528 Мбайт (2%)
Заголовок : eng
Язык : English
Default : Нет
Forced : Нет
Текст #1
Идентификатор : 4
Формат : UTF-8
Идентификатор кодека : S_TEXT/UTF8
Идентификатор кодека/Информация : UTF-8 Plain Text
Заголовок : Forced
Язык : Russian
Default : Да
Forced : Нет
Текст #2
Идентификатор : 5
Формат : UTF-8
Идентификатор кодека : S_TEXT/UTF8
Идентификатор кодека/Информация : UTF-8 Plain Text
Заголовок : Full-lenth
Язык : Russian
Default : Нет
Forced : Нет
Текст #3
Идентификатор : 6
Формат : UTF-8
Идентификатор кодека : S_TEXT/UTF8
Идентификатор кодека/Информация : UTF-8 Plain Text
Заголовок : Full
Язык : English
Default : Нет
Forced : Нет
Текст #4
Идентификатор : 7
Формат : UTF-8
Идентификатор кодека : S_TEXT/UTF8
Идентификатор кодека/Информация : UTF-8 Plain Text
Заголовок : SDH
Язык : English
Default : Нет
Forced : Нет
Меню
00:00:00.000 : en:00:00:00.000
00:04:34.566 : en:00:04:34.566
00:10:16.825 : en:00:10:16.825
00:18:32.153 : en:00:18:32.153
00:24:37.017 : en:00:24:37.017
00:31:40.482 : en:00:31:40.482
00:38:33.811 : en:00:38:33.811
00:43:16.135 : en:00:43:16.135
00:48:24.527 : en:00:48:24.527
00:55:34.498 : en:00:55:34.498
01:05:04.359 : en:01:05:04.359
01:12:38.437 : en:01:12:38.437
01:22:14.346 : en:01:22:14.346
01:28:28.637 : en:01:28:28.637
01:35:00.904 : en:01:35:00.904
01:45:06.509 : en:01:45:06.509

Релиз подготовлен 60 - fps



Последний раз редактировалось: Kryl (2017-02-25 13:00), всего редактировалось 2 раз(а)

[Цитировать]
Талямба

оооооо еееееее... ! Обезьяна

[Цитировать]
Талямба

надеюсь не 25Мбит/с битрейт... ,а то у меня больше 20 не тянет плеер Краснею

[Цитировать]
chaoshifi

Друзья, сделайте релиз 720р... Медиацентр не вытягивает 1080

[Цитировать]
Kryl

7405надеюсь не 25Мбит/с битрейт... ,а то у меня больше 20 не тянет плеер Краснею
К сожалению 25 Улыбаюсь
7406Друзья, сделайте релиз 720р... Медиацентр не вытягивает 1080
Будет в воскресение ...
 
Показать сообщения:    

Текущее время: 18-Окт 14:08

Часовой пояс: UTC + 3


Вы не можете начинать темы
Вы не можете отвечать на сообщения
Вы не можете редактировать свои сообщения
Вы не можете удалять свои сообщения
Вы не можете голосовать в опросах
Вы не можете прикреплять файлы к сообщениям
Вы не можете скачивать файлы