[Цитировать]
Kryl

«Look out Below»- Информация о фильме
Название: Догма
Оригинальное название: Dogma
Год выхода: 1999
Жанр: фэнтези, комедия, приключения
Режиссер: Кевин Смит
Сценарий: Кевин Смит
Продюсер: Скотт Мосье, Джон Гордон, Лаура Гринли
В ролях: Бен Аффлек, Мэтт Дэймон, Линда Фиорентино, Сальма Хайек, Джейсон Ли, Джейсон Мьюз, Алан Рикман, Крис Рок, Дэн Этеридж, Кевин Смит
--О фильме:
Два падших ангела, Локи и Бартлби, обреченные вечность торчать в штате Висконсин, узнали, что у них есть шанс вернуться в рай. Для этого нужно всего лишь воспользоваться ошибочной церковной католической догмой, провозглашенной кардиналом-новатором: каждый, прошедший через освященную арку в соборе в Нью-Джерси, получает отпущение грехов. Пройдя через нее, Локи и Бартлби получат прощение, далее им надо стать смертными, умереть и возвратиться в рай.
Есть только одно но. Если это произойдет, то исчезнет все сущее на земле, включая род людской. Помешать этому может только пра-пра… пра-пра племянница Иисуса Христа по имени Вифания, которой помогают тринадцатый апостол Руфус и два смертных пророка, одного из которых играет сам режиссер, а второго — его друг Джейсон Мьюз. К ним присоединяется уже давно живущая на земле Муза по имени Серендипити, подрабатывающая стриптизёршей…
- Страна: США
Продолжительность: 02:08:11
-- Файл
Кодек: MPEG4/ISO/AVC H.264
Формат: MKV
Качество: BDRip 720p
Видео: 1280 x 534 (2.397) | 59.940 fps | ~11,4 Мбит/сек
Аудио 1: AC3 | 5.1 | 48 kHz | 384 kbps | 16 bit | Дубляж |
Аудио 2: AC3 | 5.1 | 48 kHz | 640 kbps | 16 bit | Английский |
Субтитры: Русские, английские (SRT)

MedifInfo

Видео
Идентификатор : 1
Формат : AVC
Формат/Информация : Advanced Video Codec
Профиль формата : High@L4.1
Параметр CABAC формата : Да
Параметр ReFrames формата : 8 кадров
Идентификатор кодека : V_MPEG4/ISO/AVC
Продолжительность : 2 ч. 8 м.
Битрейт : 11,4 Мбит/сек
Ширина : 1280 пикселей
Высота : 534 пикселя
Соотношение сторон : 2,40:1
Режим частоты кадров : Постоянный
Частота кадров : 59,880 кадров/сек
Частота кадров в оригинале : 59,940 кадров/сек
Цветовое пространство : YUV
Субдискретизация насыщенности : 4:2:0
Битовая глубина : 8 бит
Тип развёртки : Прогрессивная
Бит/(Пиксели*Кадры) : 0.279
Размер потока : 9,99 Гбайт (90%)
Заголовок : www.60-fps.org
Библиотека кодирования : x264 core 146 r2538 121396c
Настройки программы : cabac=1 / ref=8 / deblock=1:-3:-3 / analyse=0x3:0x133 / me=esa / subme=9 / psy=1 / psy_rd=1.00:0.25 / mixed_ref=1 / me_range=32 / chroma_me=1 / trellis=2 / 8x8dct=1 / cqm=0 / deadzone=6,6 / fast_pskip=1 / chroma_qp_offset=-4 / threads=12 / lookahead_threads=1 / sliced_threads=0 / nr=0 / decimate=0 / interlaced=0 / bluray_compat=0 / constrained_intra=0 / bframes=3 / b_pyramid=2 / b_adapt=2 / b_bias=0 / direct=3 / weightb=1 / open_gop=0 / weightp=2 / keyint=599 / keyint_min=59 / scenecut=40 / intra_refresh=0 / rc_lookahead=60 / rc=2pass / mbtree=1 / bitrate=11399 / ratetol=1.0 / qcomp=0.80 / qpmin=0 / qpmax=69 / qpstep=4 / cplxblur=20.0 / qblur=0.5 / vbv_maxrate=62500 / vbv_bufsize=78125 / nal_hrd=none / filler=0 / ip_ratio=1.10 / aq=1:0.50
Default : Да
Forced : Нет
Аудио #1
Идентификатор : 2
Формат : AC-3
Формат/Информация : Audio Coding 3
Расширение режима : CM (complete main)
Параметр Endianness формата : Big
Идентификатор кодека : A_AC3
Продолжительность : 2 ч. 8 м.
Вид битрейта : Постоянный
Битрейт : 384 Кбит/сек
Каналы : 6 каналов
Расположение каналов : Front: L C R, Side: L R, LFE
Частота : 48,0 КГц
Битовая глубина : 16 бит
Метод сжатия : С потерями
Размер потока : 352 Мбайт (3%)
Заголовок : AC3 384 kbps
Язык : Russian
Default : Да
Forced : Нет
Аудио #2
Идентификатор : 3
Формат : AC-3
Формат/Информация : Audio Coding 3
Расширение режима : CM (complete main)
Параметр Endianness формата : Big
Идентификатор кодека : A_AC3
Продолжительность : 2 ч. 8 м.
Вид битрейта : Постоянный
Битрейт : 640 Кбит/сек
Каналы : 6 каналов
Расположение каналов : Front: L C R, Side: L R, LFE
Частота : 48,0 КГц
Битовая глубина : 16 бит
Метод сжатия : С потерями
Размер потока : 587 Мбайт (5%)
Заголовок : AC3 640 kbps
Язык : English
Default : Нет
Forced : Нет
Текст #1
Идентификатор : 4
Формат : UTF-8
Идентификатор кодека : S_TEXT/UTF8
Идентификатор кодека/Информация : UTF-8 Plain Text
Язык : Russian
Default : Нет
Forced : Нет
Текст #2
Идентификатор : 5
Формат : UTF-8
Идентификатор кодека : S_TEXT/UTF8
Идентификатор кодека/Информация : UTF-8 Plain Text
Язык : English
Default : Нет
Forced : Нет

Релиз подготовлен 60 - fps



Последний раз редактировалось: Kryl (2016-11-17 21:56), всего редактировалось 3 раз(а)

[Цитировать]
Tranch

Спасибо! Достойное качество изображения.

[Цитировать]
Kryl

2717Спасибо! Достойное качество изображения.
Пожалуйста.

[Цитировать]
Cynep

Хорошая комедия?
 
Показать сообщения:    

Текущее время: 10-Дек 19:40

Часовой пояс: UTC + 3


Вы не можете начинать темы
Вы не можете отвечать на сообщения
Вы не можете редактировать свои сообщения
Вы не можете удалять свои сообщения
Вы не можете голосовать в опросах
Вы не можете прикреплять файлы к сообщениям
Вы не можете скачивать файлы