[Цитировать]
mimok

Добро пожаловать в Zомбилэнд / Zombieland (2009) BDRip 720p | 60fps «Живой мертвому не товарищ»- Год выпуска: 2009
Производство: США / Pariah Films
Жанр: Ужасы, комедия-Режиссер: Рубен Флейшер
Продюсер: Гэвин Полон, Райан Кэвэна, Ретт Риз
Актеры: Джесси Айзенберг, Вуди Харрельсон, Эмма Стоун, Эбигейл Бреслин, Билл Мюррей, Эмбер Хёрд, Дерек Граф, Сизар Агирр, Джейкоб Дж. Экинс, Хантер Элдридж-Описание фильма:
После нашествия зомби в США небольшая группа выживших скитается по стране от побережья к побережью, сражаясь с живыми мертвецами. Они решают остановиться в парке развлечений, надеясь, что там будут в безопасности.-Перевод: Дублированный (Лицензия)
Субтитры: Отсутствуют- -Дата мировой премьеры: 25 сентября 2009, США Кинофестиваль фантастических фильмов в Остине
Дата российской премьеры: 8 октября 2009, «BVSPR Sony»
Дата выхода DVD релиза: 5 ноября 2009, «Columbia/Sony»
Дата выхода Blu-Ray релиза: 25 февраля 2010, «Columbia/Sony»-Продолжительность: 01:27:42
Качество видео: BDRip 720p-Видеокодек: MPEG-4 AVC/H.264
Битрейт видео: ~ 10,2 Мбит/сек
Размер кадра: 1280 x 544
Аудио: AC3 5.1, 48.0 KHz, 640 Кбит/сек - Русский-

MediaInfo

Общее
Уникальный идентификатор : 223204395240565211846972537910636652784 (0xA7EB9A5475E2D3AE9196DAC3F57128F0)
Полное имя : D:\Торренты\Zombieland 60fps.mkv
Формат : Matroska
Версия формата : Version 2
Размер файла : 6,77 Гбайт
Продолжительность : 1 ч. 27 м.
Общий поток : 11,1 Мбит/сек
Название фильма : Zombieland (2009) 1080p BD-Remux
Дата кодирования : UTC 2014-12-18 19:17:06
Программа кодирования : mkvmerge v6.9.1 ('Blue Panther') 64bit built on Apr 18 2014 18:23:38
Библиотека кодирования : libebml v1.3.0 + libmatroska v1.4.1
Видео
Идентификатор : 1
Формат : AVC
Формат/Информация : Advanced Video Codec
Профиль формата : High@L4.1
Параметр CABAC формата : Да
Параметр ReFrames формата : 6 кадров
Идентификатор кодека : V_MPEG4/ISO/AVC
Продолжительность : 1 ч. 27 м.
Битрейт : 10,2 Мбит/сек
Ширина : 1280 пикселей
Высота : 544 пикселя
Соотношение сторон : 2,35:1
Режим частоты кадров : Постоянный
Частота кадров : 59,880 кадров/сек
Частота кадров в оригинале : 59,940 кадров/сек
Цветовое пространство : YUV
Субдискретизация насыщенности : 4:2:0
Битовая глубина : 8 бит
Тип развёртки : Прогрессивная
Бит/(Пиксели*Кадры) : 0.244
Размер потока : 6,24 Гбайт (92%)
Заголовок : Release by mimok
Библиотека кодирования : x264 core 125 r2208 d9d2288
Настройки программы : cabac=1 / ref=6 / deblock=0:0:0 / analyse=0x3:0x133 / me=umh / subme=8 / psy=1 / psy_rd=1.00:0.15 / mixed_ref=1 / me_range=20 / chroma_me=1 / trellis=2 / 8x8dct=1 / cqm=0 / deadzone=21,11 / fast_pskip=0 / chroma_qp_offset=-3 / threads=6 / lookahead_threads=1 / sliced_threads=0 / nr=0 / decimate=0 / interlaced=0 / bluray_compat=0 / constrained_intra=0 / bframes=8 / b_pyramid=2 / b_adapt=2 / b_bias=0 / direct=1 / weightb=1 / open_gop=0 / weightp=2 / keyint=600 / keyint_min=59 / scenecut=40 / intra_refresh=0 / rc=crf / mbtree=0 / crf=17.0 / qcomp=0.63 / qpmin=10 / qpmax=51 / qpstep=4 / ip_ratio=1.40 / pb_ratio=1.30 / aq=1:1.20
Default : Да
Forced : Нет
Аудио
Идентификатор : 2
Формат : AC-3
Формат/Информация : Audio Coding 3
Расширение режима : CM (complete main)
Параметр Endianness формата : Big
Идентификатор кодека : A_AC3
Продолжительность : 1 ч. 27 м.
Вид битрейта : Постоянный
Битрейт : 640 Кбит/сек
Каналы : 6 каналов
Расположение каналов : Front: L C R, Side: L R, LFE
Частота : 48,0 КГц
Битовая глубина : 16 бит
Метод сжатия : С потерями
Размер потока : 401 Мбайт (6%)
Заголовок : Dub, Blu-ray CEE
Язык : Russian
Default : Да
Forced : Нет

Скринлист

Скриншоты:

[Цитировать]
checherukin

спасибо.
 
Показать сообщения:    

Текущее время: 24-Май 09:06

Часовой пояс: UTC + 3


Вы не можете начинать темы
Вы не можете отвечать на сообщения
Вы не можете редактировать свои сообщения
Вы не можете удалять свои сообщения
Вы не можете голосовать в опросах
Вы не можете прикреплять файлы к сообщениям
Вы не можете скачивать файлы