1. bot

    Longevity:
    7 years
    Posts:
    409
    Gender:
    Unknown
    «Живой мертвому не товарищ»- Информация
    Название: Добро пожаловать в Зомбилэнд
    Оригинальное название: Zombieland
    Год выхода: 2009
    Жанр: ужасы, боевик, комедия
    Режиссер: Рубен Флейшер
    Сценарий: Ретт Риз, Пол Верник
    Продюсер: Гэвин Полон, Райан Кавана, Ретт Риз
    В ролях: Вуди Харрельсон, Джесси Айзенберг, Эмили Стоун, Эбигейл Бреслин, Эмбер Хёрд, Билл Мюррэй, Дерек Граф, Ann Margaret Swindall, Джейкоб Дж. Экинс, Хантер Элдридж, Эль Александр, Майкл Аугуст, Мелани Бут, Дэниэл Бёрнли, Крис Бёрнс, Далтон Коул, Блэйз Корригэн, Эрнест Дэнси, Энтони Дж. Дэвис, Трэвис Грант, Роберт Хэтч
    --Сюжет:
    После нашествия зомби в США небольшая группа выживших скитается по стране от побережья к побережью, сражаясь с живыми мертвецами. Они решают остановиться в парке развлечений, надеясь, что там будут в безопасности.- Страна: США
    Продолжительность: 01:27:42

    Файл
    Кодек: MPEG4/ISO/AVC/H.264
    Формат: MKV
    Качество: BDRip 720p | 60 fps
    Видео: 1280x534 | 59.940 fps | 5.1 Мбит/сек
    Аудио 1: AC3 | 2.0 | 48 kHz | 448 kbps | 16 bit | Дубляж |
    Аудио 2: AC3 | 5.1 | 48 kHz | 448 kbps | 16 bit | ENG |
    Субтитры: Русские, Eng

    MedifInfo

    Video
    ID : 1
    Format : AVC
    Format/Info : Advanced Video Codec
    Format profile : [email protected]
    Format settings, CABAC : Yes
    Format settings, ReFrames : 9 frames
    Codec ID : V_MPEG4/ISO/AVC
    Duration : 1 h 27 min
    Bit rate : 5 158 kb/s
    Width : 1 280 pixels
    Height : 534 pixels
    Display aspect ratio : 2.40:1
    Frame rate mode : Constant
    Frame rate : 59.940 (60000/1001) FPS
    Color space : YUV
    Chroma subsampling : 4:2:0
    Bit depth : 8 bits
    Scan type : Progressive
    Bits/(Pixel*Frame) : 0.126
    Stream size : 3.16 GiB (84%)
    Writing library : x264 core 146 r2538 121396c
    Encoding settings : cabac=1 / ref=9 / deblock=1:0:0 / analyse=0x3:0x113 / me=umh / subme=9 / psy=1 / psy_rd=1.00:0.00 / mixed_ref=1 / me_range=24 / chroma_me=1 / trellis=2 / 8x8dct=1 / cqm=0 / deadzone=21,11 / fast_pskip=0 / chroma_qp_offset=-2 / threads=12 / lookahead_threads=1 / sliced_threads=0 / nr=0 / decimate=1 / interlaced=0 / bluray_compat=0 / constrained_intra=0 / bframes=5 / b_pyramid=2 / b_adapt=2 / b_bias=0 / direct=3 / weightb=1 / open_gop=0 / weightp=2 / keyint=250 / keyint_min=25 / scenecut=40 / intra_refresh=0 / rc_lookahead=40 / rc=crf / mbtree=0 / crf=17.1 / qcomp=0.60 / qpmin=0 / qpmax=69 / qpstep=4 / vbv_maxrate=14000 / vbv_bufsize=14000 / crf_max=0.0 / nal_hrd=none / filler=0 / ip_ratio=1.40 / pb_ratio=1.30 / aq=3:1.00
    Language : English
    Default : Yes
    Forced : No
    Audio #1
    ID : 2
    Format : AC-3
    Format/Info : Audio Coding 3
    Mode extension : CM (complete main)
    Format settings, Endianness : Big
    Codec ID : A_AC3
    Duration : 1 h 27 min
    Bit rate mode : Constant
    Bit rate : 448 kb/s
    Channel(s) : 6 channels
    Channel positions : Front: L C R, Side: L R, LFE
    Sampling rate : 48.0 kHz
    Frame rate : 31.250 FPS (1536 spf)
    Compression mode : Lossy
    Stream size : 281 MiB (7%)
    Title : Dub
    Language : Russian
    Default : Yes
    Forced : No
    Audio #2
    ID : 3
    Format : AC-3
    Format/Info : Audio Coding 3
    Mode extension : CM (complete main)
    Format settings, Endianness : Big
    Codec ID : A_AC3
    Duration : 1 h 27 min
    Bit rate mode : Constant
    Bit rate : 448 kb/s
    Channel(s) : 6 channels
    Channel positions : Front: L C R, Side: L R, LFE
    Sampling rate : 48.0 kHz
    Frame rate : 31.250 FPS (1536 spf)
    Compression mode : Lossy
    Stream size : 281 MiB (7%)
    Title : Eng
    Language : English
    Default : No
    Forced : No
    Text #1
    ID : 4
    Format : UTF-8
    Codec ID : S_TEXT/UTF8
    Codec ID/Info : UTF-8 Plain Text
    Title : Rus forced
    Language : Russian
    Default : Yes
    Forced : Yes
    Text #2
    ID : 5
    Format : UTF-8
    Codec ID : S_TEXT/UTF8
    Codec ID/Info : UTF-8 Plain Text
    Title : Rus full
    Language : Russian
    Default : No
    Forced : No
    Text #3
    ID : 6
    Format : UTF-8
    Codec ID : S_TEXT/UTF8
    Codec ID/Info : UTF-8 Plain Text
    Title : Eng full
    Language : English
    Default : No
    Forced : No
    Menu
    00:00:00.000 : :00:00:00.000
    00:00:34.618 : :00:00:34.618
    00:02:19.473 : :00:02:19.473
    00:07:15.352 : :00:07:15.352
    00:16:22.732 : :00:16:22.732
    00:21:14.064 : :00:21:14.064
    00:22:20.965 : :00:22:20.965
    00:23:08.637 : :00:23:08.637
    00:23:34.705 : :00:23:34.705
    00:24:05.944 : :00:24:05.944
    00:30:50.724 : :00:30:50.724
    00:34:17.597 : :00:34:17.597
    00:46:35.167 : :00:46:35.167
    00:52:55.464 : :00:52:55.464
    01:05:54.242 : :01:05:54.242
    01:07:01.726 : :01:07:01.726
    01:11:10.641 : :01:11:10.641
    01:12:22.129 : :01:12:22.129
    01:14:24.168 : :01:14:24.168
    01:14:53.572 : :01:14:53.572
    01:17:20.302 : :01:17:20.302
    01:19:13.791 : :01:19:13.791
    01:19:46.532 : :01:19:46.532


You cannot post new topics in this forum
You cannot reply to topics in this forum
You cannot edit your posts in this forum
You cannot delete your posts in this forum
You cannot vote in polls in this forum
You cannot attach files in this forum
You cannot download files in this forum