Гоголь. Начало (2017) BDRip 1080p | 60 fps За гранью реальности (2018) BDRip 1080p | 60 FPS Я худею (2018) BDRip 1080p | 60 FPS Гоголь. Начало (2017) BDRip 720p | 60 fps Каникулы президента (2018) BDRip 1080p | 60 FPS Легенда о Коловрате (2017) BDRip 720p | 60 fps Легенда о Коловрате (2017) BDRip 1080p | 60 fps О чём говорят мужчины. Продолжение (2018) BDRip 1080p | 60 FPS
  1. Стаж:
    3 года 11 месяцев
    Сообщений:
    2411
    Пол:
    Мужской
    «A Missing Child. A Marriage Destroyed. A Country in Crisis,» Информация
    Название: Добро пожаловать, или Посторонним вход воспрещен
    Год выхода: 1964
    Жанр: Комедия, семейный
    Режиссер: Элем Климов
    Сценарий: Семен Лунгин, Илья Нусинов
    Директор фильма: Г. Лукин
    В ролях: Виктор Косых, Евгений Евстигнеев, Арина Алейникова, Илья Рутберг, Лидия Смирнова, Алексей Смирнов, Нина Шацкая, Лидия Волкова, Татьяна Барышева, Александр Байков

    Сюжет:
    Пионер Костя Иночкин, будучи в пионерском лагере, переплыл реку и оказался на запретной для посещений территории, за что и был изгнан его начальником товарищем Дыниным. Не желая доводить бабушку до инфаркта своим досрочным прибытием, мальчик тайно возвращается в лагерь, где пионеры так же тайно содержат его и предпринимают все меры, чтобы не состоялся родительский день. Ведь именно в этот день Костина бабушка заявится в лагерь…

    Страна: СССР
    Продолжительность: 01:13:10

    Файл
    Кодек: H.264
    Формат: MKV
    Качество: BDRip 720p | 60 fps
    Видео: 986 x 720 (1.369) | 59.940 fps | 10.0 Мбит/сек
    Аудио: AC3 | 5.1 | 48 kHz | 448 kbps | 16 bit

    MedifInfo

    Видео
    Идентификатор : 1
    Формат : AVC
    Формат/Информация : Advanced Video Codec
    Профиль формата : High@L4.1
    Параметр CABAC формата : Да
    Параметр ReFrames формата : 3 кадра
    Идентификатор кодека : V_MPEG4/ISO/AVC
    Продолжительность : 1 ч. 13 м.
    Вид битрейта : Переменный
    Битрейт : 9684 Кбит/сек
    Максимальный битрейт : 10000 Кбит/сек
    Ширина : 986 пикселей
    Высота : 720 пикселей
    Соотношение сторон : 4:3
    Режим частоты кадров : Постоянный
    Частота кадров : 59,880 кадров/сек
    Частота кадров в оригинале : 59,940 кадров/сек
    Стандарт вещания : PAL
    Цветовое пространство : YUV
    Субдискретизация насыщенности : 4:2:0
    Битовая глубина : 8 бит
    Тип развёртки : Прогрессивная
    Бит/(Пиксели*Кадры) : 0.228
    Размер потока : 4,95 Гбайт (94%)
    Заголовок : www.60-fps.org
    Язык : English
    Default : Да
    Forced : Нет
    Основные цвета : BT.709
    Характеристики трансфера : BT.709
    Коэффициенты матрицы : BT.709
    colour_range : Limited
    Аудио
    Идентификатор : 2
    Формат : AC-3
    Формат/Информация : Audio Coding 3
    Расширение режима : CM (complete main)
    Параметр Endianness формата : Big
    Идентификатор кодека : A_AC3
    Продолжительность : 1 ч. 13 м.
    Вид битрейта : Постоянный
    Битрейт : 448 Кбит/сек
    Каналы : 6 каналов
    Расположение каналов : Front: L C R, Side: L R, LFE
    Частота : 48,0 КГц
    Битовая глубина : 16 бит
    Метод сжатия : С потерями
    Размер потока : 234 Мбайт (4%)
    Заголовок : AC3 5.1 / 448 kbps
    Язык : Russian
    Default : Нет
    Forced : Нет
    Меню
    00:00:00.000 : ru:Chapter 00
    00:03:39.636 : ru:Chapter 01
    00:07:41.252 : ru:Chapter 02
    00:13:04.617 : ru:Chapter 03
    00:16:49.591 : ru:Chapter 04
    00:23:13.517 : ru:Chapter 05
    00:26:13.488 : ru:Chapter 06
    00:33:42.437 : ru:Chapter 07
    00:38:29.348 : ru:Chapter 08
    00:42:10.778 : ru:Chapter 09
    00:46:03.093 : ru:Chapter 10
    00:49:15.327 : ru:Chapter 11
    00:57:17.350 : ru:Chapter 12
    01:01:05.662 : ru:Chapter 13
    01:05:37.725 : ru:Chapter 14

    Релиз подготовлен 60 - fps



Вы не можете начинать темы
Вы не можете отвечать на сообщения
Вы не можете редактировать свои сообщения
Вы не можете удалять свои сообщения
Вы не можете голосовать в опросах
Вы не можете прикреплять файлы к сообщениям
Вы не можете скачивать файлы