Топ Топиков за 24 часа
 
Джентльмены удачи (1971) BDRip-AVC | 60 fps Брат 2 (2000 г.) DVDRip | 60 fps Притяжение (2017) BDRip 1080p | 60 fps Операция «Ы» и другие приключения Шурика (1965) BDRip-AVC | 60 fps Собачье сердце (1988) HD 720p | 60 fps 28 панфиловцев (2016) BDRip 1080p | 60 fps Кавказская пленница, или Новые приключения Шурика (1966) BDRip-AVC | 60 fps Иван Васильевич меняет профессию (1973) BDRip-AVC | 60 fps Кин-дза-дза! (1986) BDRip 1080p | 60 fps Брат (1997) HDDVDRip 720p | 60fps Жмурки (2005) BDRip 720p | 60 fps Гагарин. Первый в космосе (2013) BDRip 1080p | 60 fps
  1. bot

    Стаж:
    3 года 2 месяца
    Сообщений:
    413
    Пол:
    Не указан
    «Первый фильм года»- Информация
    Название: Дневной дозор
    Год выхода: 2005
    Жанр: фэнтези, боевик, триллер
    Режиссер: Тимур Бекмамбетов
    Сценарий: Тимур Бекмамбетов, Сергей Лукьяненко, Александр Талал
    Продюсер: Варя Авдюшко, Константин Эрнст, Алексей Кублицкий
    В ролях: Константин Хабенский, Мария Порошина, Владимир Меньшов, Галина Тюнина, Виктор Вержбицкий, Жанна Фриске, Дмитрий Мартынов, Валерий Золотухин, Алексей Чадов, Нуржуман Ихтымбаев
    --Сюжет:

    Ночью в подъезде своего дома убита молодая женщина. На теле не обнаружено никаких следов насилия… Зыбкое равновесие между Светлыми и Темными нарушено. И чаша весов склоняется в сторону Темных. Но убитая — Темная иная, а значит подозрение падает на Светлых.
    Гессер срочно собирает команду: обвинение в убийстве — серьезная проблема. Он обязан реагировать. И, прежде всего, понять кто где был и чем занимался в указанное Темными время. Выясняется, что алиби отсутствует только у Городецкого…
    - - Страна: Россия
    Продолжительность: 02:25:48

    Файл
    Кодек: MPEG4/ISO/AVC H.264
    Формат: MKV
    Качество: BDRip-AVC | 60 fps
    Видео: 1024x432 (2.35:1) | 59.940 fps | 3.2 Мбит/сек
    Аудио: AC3 | 5.1 | 48 kHz | 640 kbps | 16 bit |
    Субтитры: русские (Форсированные)

    MedifInfo

    Video
    ID : 1
    Format : AVC
    Format/Info : Advanced Video Codec
    Format profile : High@L4.1
    Format settings, CABAC : Yes
    Format settings, ReFrames : 4 frames
    Codec ID : V_MPEG4/ISO/AVC
    Duration : 2h 25mn
    Bit rate : 3 230 Kbps
    Width : 1 024 pixels
    Height : 432 pixels
    Display aspect ratio : 2.35:1
    Frame rate : 59.940 fps
    Color space : YUV
    Chroma subsampling : 4:2:0
    Bit depth : 8 bits
    Scan type : Progressive
    Bits/(Pixel*Frame) : 0.122
    Stream size : 3.22 GiB (81%)
    Writing library : x264 core 146 r2538 121396c
    Encoding settings : cabac=1 / ref=3 / deblock=1:0:0 / analyse=0x3:0x113 / me=umh / subme=11 / psy=1 / psy_rd=1.00:0.10 / mixed_ref=1 / me_range=32 / chroma_me=1 / trellis=2 / 8x8dct=1 / cqm=0 / deadzone=21,11 / fast_pskip=0 / chroma_qp_offset=-3 / threads=12 / lookahead_threads=3 / sliced_threads=0 / nr=0 / decimate=1 / interlaced=0 / bluray_compat=0 / constrained_intra=0 / bframes=16 / b_pyramid=2 / b_adapt=2 / b_bias=0 / direct=3 / weightb=1 / open_gop=0 / weightp=2 / keyint=250 / keyint_min=25 / scenecut=40 / intra_refresh=0 / rc_lookahead=40 / rc=2pass / mbtree=0 / bitrate=3230 / ratetol=1.0 / qcomp=0.60 / qpmin=0 / qpmax=69 / qpstep=4 / cplxblur=20.0 / qblur=0.5 / vbv_maxrate=14000 / vbv_bufsize=14000 / nal_hrd=none / filler=0 / ip_ratio=1.40 / pb_ratio=1.30 / aq=1:1.00
    Language : English
    Default : Yes
    Forced : No
    Audio
    ID : 2
    Format : AC-3
    Format/Info : Audio Coding 3
    Mode extension : CM (complete main)
    Codec ID : A_AC3
    Duration : 2h 25mn
    Bit rate mode : Constant
    Bit rate : 640 Kbps
    Channel(s) : 6 channels
    Channel positions : Front: L C R, Side: L R, LFE
    Sampling rate : 48.0 KHz
    Bit depth : 16 bits
    Compression mode : Lossy
    Stream size : 667 MiB (17%)
    Title : Оригинал
    Language : Russian
    Default : Yes
    Forced : No
    Text
    ID : 3
    Format : UTF-8
    Codec ID : S_TEXT/UTF8
    Codec ID/Info : UTF-8 Plain Text
    Title : Форсированные
    Language : Russian
    Default : Yes
    Forced : No
    Menu
    00:00:00.000 : en:Chapter 1
    00:05:48.139 : en:Chapter 2
    00:08:30.218 : en:Chapter 3
    00:12:35.838 : en:Chapter 4
    00:17:00.352 : en:Chapter 5
    00:20:30.270 : en:Chapter 6
    00:23:24.319 : en:Chapter 7
    00:26:59.200 : en:Chapter 8
    00:32:45.797 : en:Chapter 9
    00:35:15.530 : en:Chapter 10
    00:38:31.976 : en:Chapter 11
    00:40:52.450 : en:Chapter 12
    00:45:38.068 : en:Chapter 13
    00:49:48.777 : en:Chapter 14
    00:54:10.622 : en:Chapter 15
    00:57:15.849 : en:Chapter 16
    01:00:01.556 : en:Chapter 17
    01:01:27.141 : en:Chapter 18
    01:05:13.576 : en:Chapter 19
    01:06:54.260 : en:Chapter 20
    01:08:56.715 : en:Chapter 21
    01:13:09.551 : en:Chapter 22
    01:16:12.025 : en:Chapter 23
    01:20:04.591 : en:Chapter 24
    01:22:50.173 : en:Chapter 25
    01:28:49.824 : en:Chapter 26
    01:30:42.770 : en:Chapter 27
    01:34:49.475 : en:Chapter 28
    01:39:45.813 : en:Chapter 29
    01:45:16.476 : en:Chapter 30
    01:46:56.326 : en:Chapter 31
    01:50:32.834 : en:Chapter 32
    01:52:12.934 : en:Chapter 33
    01:54:37.120 : en:Chapter 34
    01:57:41.804 : en:Chapter 35
    02:01:07.009 : en:Chapter 36
    02:08:46.969 : en:Chapter 37
    02:10:28.862 : en:Chapter 38
    02:13:10.065 : en:Chapter 39
    02:17:02.130 : en:Chapter 40


Вы не можете начинать темы
Вы не можете отвечать на сообщения
Вы не можете редактировать свои сообщения
Вы не можете удалять свои сообщения
Вы не можете голосовать в опросах
Вы не можете прикреплять файлы к сообщениям
Вы не можете скачивать файлы