Богемская рапсодия /Bohemian Rhapsody (2018) BDRip 1080p | 60 fps Властелин колец: Трилогия / The Lord of the Rings: Trilogy (2001-2003) BDRip-AVC | Extended Cut | 60 fps Апгрейд / Upgrade (2018) BDRip 1080p | 60 fps Альфа / Alpha (2018) BDRip 720p | 60 fps Проклятие монахини / The Nun (2018) BDRip 720p | 60 fps 22 мили / Mile 22 (2018) BDRip 720p | 60 fps Кристофер Робин / Christopher Robin (2018) BDRip 1080p | 60 fps Маугли / Mowgli (2018) BDRip 720p | 60 fps
  1. Longevity:
    4 years 7 months
    Posts:
    311
    Gender:
    Male
    Джон Картер / John Carter (2012) BDRip 720p | 48fps«В этом мире у каждого есть второй шанс»- Информация о фильме
    Название: Джон Картер
    Оригинальное название: John Carter
    Год выхода: 2012
    Жанр: Фантастика, фэнтези, боевик, приключения
    Режиссер: Эндрю Стэнтон
    В ролях: Тейлор Китч, Линн Коллинс, Марк Стронг, Доминик Уэст, Джеймс Пьюрфой, Брайан Крэнстон, Дэрил Сабара, Аманда Клэйтон, Киаран Хайндс, Николас Вудесон
    Описание фильма:
    Ветеран Гражданской войны в США Джон Картер против своей воли оказывается на Марсе, где попадает в плен к воинственным четырехметровым туземцам. Картеру предстоит не только спастись самому, но и спасти принцессу Дею Торис из Гелиума.
    Страна: США
    Студия: Walt Disney Pictures
    Продолжительность: 02:12:01
    Перевод: Дублированный (Лицензия)
    Субтитры: Вшитые, отключаемые
    Язык субтитров: Русский (Forsed, Full), Английский (Full)

    Дата мировой премьеры: 22 февраля 2012, США Лос-Анджелес, Калифорния
    Дата российской премьеры: 8 марта 2012, «WDSSPR»
    Дата выхода DVD релиза: 5 июня 2012, «Уолт Дисней Компани СНГ»
    Дата выхода Blu-Ray релиза: 5 июня 2012, «Уолт Дисней Компани СНГ»
    Файл
    Формат: MKV
    Кодек: MPEG-4 AVC/H.264
    Качество: BDRip 720p
    Видео: ~ 4171 Кбит/сек, 1280 x 544, 47.952 кадров/сек
    Аудио: AC3 5.1, 48.0 KHz, 640 Кбит/сек - Русский

    MediaInfo

    Общее
    Уникальный идентификатор : 248232074945109256619589933239974625661 (0xBABFC23589948C6CA63767B4CDAE017D)
    Полное имя : D:\Торренты\John Carter 48fps.mkv
    Формат : Matroska
    Версия формата : Version 2
    Размер файла : 4,53 Гбайт
    Продолжительность : 2 ч. 12 м.
    Общий поток : 4909 Кбит/сек
    Дата кодирования : UTC 2015-01-25 14:40:55
    Программа кодирования : mkvmerge v6.9.1 ('Blue Panther') 64bit built on Apr 18 2014 18:23:38
    Библиотека кодирования : libebml v1.3.0 + libmatroska v1.4.1
    Видео
    Идентификатор : 1
    Формат : AVC
    Формат/Информация : Advanced Video Codec
    Профиль формата : High@L4.1
    Параметр CABAC формата : Да
    Параметр ReFrames формата : 6 кадров
    Идентификатор кодека : V_MPEG4/ISO/AVC
    Продолжительность : 2 ч. 12 м.
    Битрейт : 4171 Кбит/сек
    Ширина : 1280 пикселей
    Высота : 544 пикселя
    Соотношение сторон : 2,35:1
    Режим частоты кадров : Постоянный
    Частота кадров : 47,952 кадров/сек
    Цветовое пространство : YUV
    Субдискретизация насыщенности : 4:2:0
    Битовая глубина : 8 бит
    Тип развёртки : Прогрессивная
    Бит/(Пиксели*Кадры) : 0.125
    Размер потока : 3,85 Гбайт (85%)
    Заголовок : Release by mimok
    Библиотека кодирования : x264 core 130 r2273 b3065e6
    Настройки программы : cabac=1 / ref=6 / deblock=1:0:0 / analyse=0x3:0x133 / me=umh / subme=8 / psy=1 / psy_rd=1.00:0.15 / mixed_ref=1 / me_range=20 / chroma_me=1 / trellis=2 / 8x8dct=1 / cqm=0 / deadzone=21,11 / fast_pskip=0 / chroma_qp_offset=-3 / threads=6 / lookahead_threads=2 / sliced_threads=0 / nr=0 / decimate=0 / interlaced=0 / bluray_compat=0 / constrained_intra=0 / bframes=8 / b_pyramid=2 / b_adapt=2 / b_bias=0 / direct=1 / weightb=1 / open_gop=0 / weightp=2 / keyint=250 / keyint_min=25 / scenecut=40 / intra_refresh=0 / rc=crf / mbtree=0 / crf=18.0 / qcomp=0.63 / qpmin=10 / qpmax=51 / qpstep=4 / ip_ratio=1.40 / pb_ratio=1.30 / aq=1:1.20
    Default : Да
    Forced : Нет
    Аудио
    Идентификатор : 2
    Формат : AC-3
    Формат/Информация : Audio Coding 3
    Расширение режима : CM (complete main)
    Параметр Endianness формата : Big
    Идентификатор кодека : A_AC3
    Продолжительность : 2 ч. 12 м.
    Вид битрейта : Постоянный
    Битрейт : 640 Кбит/сек
    Каналы : 6 каналов
    Расположение каналов : Front: L C R, Side: L R, LFE
    Частота : 48,0 КГц
    Битовая глубина : 16 бит
    Метод сжатия : С потерями
    Размер потока : 604 Мбайт (13%)
    Заголовок : Dub
    Язык : Russian
    Default : Да
    Forced : Нет
    Текст #1
    Идентификатор : 3
    Формат : UTF-8
    Идентификатор кодека : S_TEXT/UTF8
    Идентификатор кодека/Информация : UTF-8 Plain Text
    Заголовок : Full
    Язык : Russian
    Default : Да
    Forced : Нет
    Текст #2
    Идентификатор : 4
    Формат : UTF-8
    Идентификатор кодека : S_TEXT/UTF8
    Идентификатор кодека/Информация : UTF-8 Plain Text
    Заголовок : Full
    Язык : English
    Default : Нет
    Forced : Нет

    Скринлист

    Скриншоты:
  2. Longevity:
    4 years 6 months
    Posts:
    20
    Gender:
    Unknown
    спасибо
    26-Jan-2015 01:02 (after 7 hours)
  3. Longevity:
    4 years
    Posts:
    81
    Gender:
    Male
    Марк Стронг гениален.
    16-May-2015 15:50 (after 3 months 21 day)


You cannot post new topics in this forum
You cannot reply to topics in this forum
You cannot edit your posts in this forum
You cannot delete your posts in this forum
You cannot vote in polls in this forum
You cannot attach files in this forum
You cannot download files in this forum