[Цитировать]
Гость

-Название: Джон Картер
Оригинальное название: John Carter
Год выпуска: 2012
Страна: США
Жанр: фантастика, фэнтези, боевик, приключения
Продолжительность: 02:12:01
Перевод: Дубляж
Субтитры: русские (Форсированные), русские (Полные), английские (Форсированные), английские (Полные)-Режиссер: Эндрю Стэнтон / Andrew Stanton-В ролях: Тейлор Китч (John Carter), Линн Коллинс (Dejah Thoris), Марк Стронг (Matai Shang), Доминик Уэст (Sab Than), Джеймс Пьюрфой (Kantos Kan), Брайан Крэнстон (Powell), Дэрил Сабара (Edgar Rice Burroughs), Аманда Клэйтон (Sarah Carter), Киран Хайндс (Tardos Mors), Николас Вудесон (Dalton), Руперт Фрейзер (Thompson), Уиллем Дефо (Tars Tarkas)-Описание:
Ветеран Гражданской войны в США Джон Картер против своей воли оказывается на Марсе, где попадает в плен к воинственным четырехметровым туземцам. Картеру предстоит не только спастись самому, но и спасти принцессу Дею Торис из Гелиума.-Рейтинг

imdb.com: 6.60 (178 171)
MPAA: PG-13 - Детям до 13 лет просмотр не желателен-Автор рипа:Tiberiumsun69
-Качество: 3D BDRip 1080p / 60 FPS
Формат: MKV
Видео кодек: AVC
Аудио кодек:AC3, DTS
Видео: AVC, 1920x800, 16000 kbps, 59,940 fps
Аудио №1: русский / AC3 / 5.1 / 48 kHz / 640 kbps / 16 bit |Дубляж|
Аудио №2: английский / AC3 / 5.1 / 48 kHz / 640 kbps / 16 bit
Аудио №3: русский / DTS / 5.1 / 48 kHz / 1510 kbps / 24 bit |Дубляж|
Навигация по главам: есть- -

MI

General
Unique ID : 186078245450844541524578288175008204860 (0x8BFD5DD25F663923B340BB43F5FC483C)
Complete name : A:3DДжон Картер 3D 1080p 60fps.mkv
Format : Matroska
Format version : Version 4 / Version 2
File size : 17.3 GiB
Duration : 2h 12mn
Overall bit rate : 18.8 Mbps
Encoded date : UTC 2014-10-21 12:42:42
Writing application : mkvmerge v6.9.1 ('Blue Panther') 64bit built on Apr 18 2014 18:23:38
Writing library : libebml v1.3.0 + libmatroska v1.4.1
Video
ID : 1
Format : AVC
Format/Info : Advanced Video Codec
Format profile : High@L4.1
Format settings, CABAC : Yes
Format settings, ReFrames : 4 frames
Codec ID : V_MPEG4/ISO/AVC
Duration : 2h 12mn
Bit rate : 16.0 Mbps
Width : 1 920 pixels
Height : 800 pixels
Display aspect ratio : 2.40:1
Frame rate : 59.940 fps
Color space : YUV
Chroma subsampling : 4:2:0
Bit depth : 8 bits
Scan type : Progressive
Bits/(Pixel*Frame) : 0.174
Stream size : 14.4 GiB (83%)
Writing library : x264 core 130 r2273 b3065e6
Encoding settings : cabac=1 / ref=4 / deblock=1:-1:-1 / analyse=0x3:0 / me=umh / subme=9 / psy=1 / psy_rd=1.00:0.00 / mixed_ref=1 / me_range=44 / chroma_me=0 / trellis=2 / 8x8dct=1 / cqm=0 / deadzone=21,11 / fast_pskip=0 / chroma_qp_offset=-2 / threads=12 / lookahead_threads=1 / sliced_threads=0 / nr=0 / decimate=0 / interlaced=0 / bluray_compat=0 / constrained_intra=0 / bframes=5 / b_pyramid=2 / b_adapt=2 / b_bias=0 / direct=3 / weightb=1 / open_gop=0 / weightp=2 / keyint=250 / keyint_min=59 / scenecut=40 / intra_refresh=0 / rc_lookahead=60 / rc=2pass / mbtree=1 / bitrate=16000 / ratetol=1.0 / qcomp=0.80 / qpmin=0 / qpmax=69 / qpstep=4 / cplxblur=20.0 / qblur=0.5 / ip_ratio=1.40 / aq=1:0.80
Language : English
Default : Yes
Forced : No
Audio #1
ID : 2
Format : AC-3
Format/Info : Audio Coding 3
Mode extension : CM (complete main)
Codec ID : A_AC3
Duration : 2h 12mn
Bit rate mode : Constant
Bit rate : 640 Kbps
Channel(s) : 6 channels
Channel positions : Front: L C R, Side: L R, LFE
Sampling rate : 48.0 KHz
Bit depth : 16 bits
Compression mode : Lossy
Stream size : 604 MiB (3%)
Title : Дубляж
Language : Russian
Default : Yes
Forced : No
Audio #2
ID : 3
Format : AC-3
Format/Info : Audio Coding 3
Mode extension : CM (complete main)
Codec ID : A_AC3
Duration : 2h 12mn
Bit rate mode : Constant
Bit rate : 640 Kbps
Channel(s) : 6 channels
Channel positions : Front: L C R, Side: L R, LFE
Sampling rate : 48.0 KHz
Bit depth : 16 bits
Compression mode : Lossy
Stream size : 604 MiB (3%)
Title : Оригинал
Language : English
Default : No
Forced : No
Audio #3
ID : 4
Format : DTS
Format/Info : Digital Theater Systems
Codec ID : A_DTS
Duration : 2h 12mn
Bit rate mode : Constant
Bit rate : 1 510 Kbps
Channel(s) : 6 channels
Channel positions : Front: L C R, Side: L R, LFE
Sampling rate : 48.0 KHz
Bit depth : 24 bits
Compression mode : Lossy
Stream size : 1.39 GiB (8%)
Title : Дубляж
Language : Russian
Default : No
Forced : No
Text #1
ID : 5
Format : UTF-8
Codec ID : S_TEXT/UTF8
Codec ID/Info : UTF-8 Plain Text
Title : Форсированные
Language : Russian
Default : Yes
Forced : No
Text #2
ID : 6
Format : UTF-8
Codec ID : S_TEXT/UTF8
Codec ID/Info : UTF-8 Plain Text
Title : Полные
Language : Russian
Default : No
Forced : No
Text #3
ID : 7
Format : UTF-8
Codec ID : S_TEXT/UTF8
Codec ID/Info : UTF-8 Plain Text
Title : Форсированные
Language : English
Default : No
Forced : No
Text #4
ID : 8
Format : UTF-8
Codec ID : S_TEXT/UTF8
Codec ID/Info : UTF-8 Plain Text
Title : Полные
Language : English
Default : No
Forced : No
Menu
00:00:00.000 : en:HYPERHD 01
00:04:01.241 : en:HYPERHD 02
00:10:22.913 : en:HYPERHD 03
00:20:08.790 : en:HYPERHD 04
00:27:05.206 : en:HYPERHD 05
00:37:29.163 : en:HYPERHD 06
00:47:43.569 : en:HYPERHD 07
00:58:51.653 : en:HYPERHD 08
01:07:42.433 : en:HYPERHD 09
01:15:01.038 : en:HYPERHD 10
01:22:34.199 : en:HYPERHD 11
01:30:29.799 : en:HYPERHD 12
01:37:02.066 : en:HYPERHD 13
01:46:52.030 : en:HYPERHD 14
01:53:48.988 : en:HYPERHD 15
02:02:54.533 : en:HYPERHD 16

Скриншоты

Просьба к переливающим на другие сайты, в оформлении указывайте пожалуйста авторство рипа - Tiberiumsun69

Топик был перенесен из форума Зарубежные фильмы 60fps в форум Кино в 3D 60 fps
Tiberiumsun69

[Цитировать]
Андрей 60

Недооцененный фильм. Спасибо за раздачу. Может быть все же будет когда-нибудь продолжение
 
Показать сообщения:    

Текущее время: 22-Июл 07:57

Часовой пояс: UTC + 3


Вы не можете начинать темы
Вы не можете отвечать на сообщения
Вы не можете редактировать свои сообщения
Вы не можете удалять свои сообщения
Вы не можете голосовать в опросах
Вы не можете прикреплять файлы к сообщениям
Вы не можете скачивать файлы