[Цитировать]
Гость

Джиперс Криперс

-Название: Джиперс Криперс
Оригинальное название: Jeepers Creepers
Год выпуска: 2001
Страна: Германия, США
Жанр: ужасы, триллер
Продолжительность: 01:31:12
Перевод: Дубляж
Субтитры: русские (Полные), английские (Полные)-Режиссер: Виктор Сальва / Victor Salva-В ролях: Джина Филипс (Patricia «Trish» Jenner), Джастин Лонг (Darry Jenner), Джонатан Брек (The Creeper / Bald Cop), Патриция Белчер (Jezelle Gay Hartman), Айлин Бреннан (The Cat Lady), Брэндон Смит (Sgt. David Tubbs), Пегги Шеффилд (Waitress Beverly), Джеффри Уильям Эванс (Restaurant Manager), Патрик Черри (Binky Plutzker), Джон Бешара (Officer Robert Gideon), Авис-Мари Барнс (Officer Natasha Weston), Стив Ролерсон (Cellblock Officer)-Описание:
Если бы Дэрри и Триш знали, во что превратится их обычное путешествие домой на каникулы, то остались бы в колледже навсегда. Брат и сестра заметили его на безлюдной дороге рядом с жуткой, обветшалой церковью. Страшная фигура в длинном чёрном плаще и широкополой шляпе скидывала в подвал свертки, испачканные чем-то красным. После увиденного нужно было немедленно вдавить педаль газа взятой напрокат машины и умчаться от этого проклятого места как можно дальше. Но Дэрри и Триш допустили непоправимую, смертельную ошибку. Они решили вернуться и посмотреть: что же он прячет там, в подвале покосившейся церкви? Это безрассудное любопытство обернулось самым невообразимым кошмаром, который только можно себе представить...-Рейтинг

imdb.com: 6.00 (69 456)
MPAA: R - Лицам до 17 лет обязательно присутствие взрослого-Автор рипа:Tiberiumsun69
-Качество: BDRip 1080p / 60 FPS
Формат: MKV
Видео кодек: AVC
Аудио кодек:AC3
Видео: AVC, 1920x1040 (16:9), 14000 kbps, 59,940 fps, 0,117 bpp
Аудио №1: русский / AC3 / 5.1 / 48 kHz / 448 kbps / 16 bit |Дубляж|
Аудио №2: английский / AC3 / 5.1 / 48 kHz / 640 kbps / 16 bit
Навигация по главам: есть- -

MI

General
Unique ID : 198823193533885710174003526522409230176 (0x9593F446E194C0BEBB6629AA8E369F60)
Complete name : A:1080p 60fpsДжиперс Криперс 1080p 60fpsДжиперс Криперс 1 1080p 60fps.mkv
Format : Matroska
Format version : Version 4 / Version 2
File size : 9.60 GiB
Duration : 1h 31mn
Overall bit rate : 15.1 Mbps
Movie name : R.G. HD-Films by Tiberiumsun69 60fps
Encoded date : UTC 2014-11-08 17:46:18
Writing application : mkvmerge v6.9.1 ('Blue Panther') 64bit built on Apr 18 2014 18:23:38
Writing library : libebml v1.3.0 + libmatroska v1.4.1
Attachment : Yes
Video
ID : 1
Format : AVC
Format/Info : Advanced Video Codec
Format profile : High@L4.1
Format settings, CABAC : Yes
Format settings, ReFrames : 4 frames
Codec ID : V_MPEG4/ISO/AVC
Duration : 1h 31mn
Bit rate : 14.0 Mbps
Width : 1 920 pixels
Height : 1 040 pixels
Display aspect ratio : 16:9
Frame rate : 59.940 fps
Color space : YUV
Chroma subsampling : 4:2:0
Bit depth : 8 bits
Scan type : Progressive
Bits/(Pixel*Frame) : 0.117
Stream size : 8.72 GiB (91%)
Title : R.G. HD-Films by Tiberiumsun69 60fps
Writing library : x264 core 130 r2273 b3065e6
Encoding settings : cabac=1 / ref=4 / deblock=1:-1:-1 / analyse=0x3:0 / me=umh / subme=9 / psy=1 / psy_rd=1.00:0.00 / mixed_ref=1 / me_range=44 / chroma_me=0 / trellis=2 / 8x8dct=1 / cqm=0 / deadzone=21,11 / fast_pskip=0 / chroma_qp_offset=-2 / threads=12 / lookahead_threads=1 / sliced_threads=0 / nr=0 / decimate=0 / interlaced=0 / bluray_compat=0 / constrained_intra=0 / bframes=5 / b_pyramid=2 / b_adapt=2 / b_bias=0 / direct=3 / weightb=1 / open_gop=0 / weightp=2 / keyint=250 / keyint_min=59 / scenecut=40 / intra_refresh=0 / rc_lookahead=60 / rc=2pass / mbtree=1 / bitrate=14000 / ratetol=1.0 / qcomp=0.80 / qpmin=0 / qpmax=69 / qpstep=4 / cplxblur=20.0 / qblur=0.5 / ip_ratio=1.40 / aq=1:0.80
Language : English
Default : Yes
Forced : No
Audio #1
ID : 2
Format : AC-3
Format/Info : Audio Coding 3
Mode extension : CM (complete main)
Codec ID : A_AC3
Duration : 1h 31mn
Bit rate mode : Constant
Bit rate : 448 Kbps
Channel(s) : 6 channels
Channel positions : Front: L C R, Side: L R, LFE
Sampling rate : 48.0 KHz
Bit depth : 16 bits
Compression mode : Lossy
Stream size : 292 MiB (3%)
Title : Дубляж
Language : Russian
Default : Yes
Forced : No
Audio #2
ID : 3
Format : AC-3
Format/Info : Audio Coding 3
Mode extension : CM (complete main)
Codec ID : A_AC3
Duration : 1h 31mn
Bit rate mode : Constant
Bit rate : 640 Kbps
Channel(s) : 6 channels
Channel positions : Front: L C R, Side: L R, LFE
Sampling rate : 48.0 KHz
Bit depth : 16 bits
Compression mode : Lossy
Stream size : 418 MiB (4%)
Title : Оригинал
Language : English
Default : No
Forced : No
Text #1
ID : 4
Format : UTF-8
Codec ID : S_TEXT/UTF8
Codec ID/Info : UTF-8 Plain Text
Title : Полные
Language : Russian
Default : No
Forced : No
Text #2
ID : 5
Format : UTF-8
Codec ID : S_TEXT/UTF8
Codec ID/Info : UTF-8 Plain Text
Title : Полные
Language : English
Default : No
Forced : No
Menu
00:00:00.000 : :Main Title
00:01:41.337 : :The Long Way Home
00:04:50.986 : :Truck Attack
00:08:22.030 : :Bathroom Break
00:10:17.979 : :Church Chase
00:13:44.977 : :"What if It Was You?"
00:16:13.542 : :Back to the Church
00:20:44.605 : :Horrors Down Under
00:26:13.934 : :The House of Pain
00:30:37.447 : :Truck Start
00:32:27.265 : :Entering Pertwilla
00:35:02.378 : :Phantom Phone Call
00:38:54.444 : :Laundry Sniffing
00:43:29.385 : :Nightmare Road
00:50:17.626 : :The Cat Lady
00:55:51.585 : :Monster Mashing
01:01:54.781 : :Poho County
01:03:26.289 : :Jezelle Gay Hartman
01:08:18.331 : :Bone Appetit
01:09:53.759 : :My Heart Goes Out
01:13:35.564 : :Dark Dreams
01:16:19.562 : :My Brother's Creeper
01:21:31.206 : :The Last Crow
01:25:09.091 : :End Credits

Скриншоты

Джиперс Криперс 2

-Название: Джиперс Криперс 2
Оригинальное название: Jeepers Creepers II
Год выпуска: 2002
Страна: США
Жанр: ужасы, триллер
Продолжительность: 01:44:17
Перевод: Дубляж
Субтитры: русские (Полные), английские (Полные)-Режиссер: Виктор Сальва / Victor Salva-В ролях: Рэй Уайз (Jack Taggart Sr.), Джонатан Брек (The Creeper), Гарикайи Мутамбирва (Deaundre «Double D» Davis), Эрик Неннингер (Scott «Scotty» Braddock), Никки Эйкокс (Minxie Hayes), Трэвис Шиффнер (Izzy Bohen), Лена Кардвэлл (Chelsea Farmer), Билли Аарон Браун (Andy «Bucky» Buck), Марайа Делфино (Rhonda Truitt), Дайан Делано (Bus Driver Betty Borman), Том Госсом мл. (Coach Charlie Hanna), Том Тарантини (Coach Dwayne Barnes)-Описание:
Раз в 23 года зловещий крылатый и когтистый монстр пробуждается от долгого сна, чтобы 23 дня насыщаться человеческой плотью и страхом своих жертв. На исходе последний день его кошмарного пира, и сегодня древнее неведомое зло ждет богатый улов - спортивная команда и очаровательные болельщицы, возвращающиеся с триумфальной игры.
Они одни в сломанном автобусе на пустынном шоссе, где не работают мобильные телефоны и неоткуда ждать помощи. На закате прожорливое исчадие ада начнет свою кровавую вакханалию. Сможет ли его добыча дожить до утра, или эта неуязвимая тварь убьет объятых ужасом тинейджеров одного за другим?-Рейтинг

imdb.com: 5.50 (36 935)
MPAA: R - Лицам до 17 лет обязательно присутствие взрослого-Автор рипа:Tiberiumsun69
-Качество: BDRip 1080p / 60 FPS
Формат: MKV
Видео кодек: AVC
Аудио кодек:AC3
Видео: AVC, 1920x816 (2.35:1), 14000 kbps, 59,940 fps, 0,149 bpp
Аудио №1: русский / AC3 / 5.1 / 48 kHz / 448 kbps / 16 bit |Дубляж|
Аудио №2: русский / AC3 / 2.0 / 48 kHz / 224 kbps / 16 bit |Многоголосый, закадровый СТС|
Аудио №3: русский / AC3 / 2.0 / 48 kHz / 224 kbps / 16 bit |Многоголосый, закадровый (VHS)|
Аудио №4: английский / AC3 / 5.1 / 48 kHz / 640 kbps / 16 bit
Навигация по главам: есть- -

MI

General
Unique ID : 201514476622638957834303239315096578106 (0x979A46C7194944C6A3347DEB682BA83A)
Complete name : A:1080p 60fpsДжиперс Криперс 1080p 60fpsДжиперс Криперс 2 1080p 60fps.mkv
Format : Matroska
Format version : Version 4 / Version 2
File size : 11.4 GiB
Duration : 1h 44mn
Overall bit rate : 15.6 Mbps
Movie name : R.G. HD-Films by Tiberiumsun69 60fps
Encoded date : UTC 2014-11-08 17:40:39
Writing application : mkvmerge v6.9.1 ('Blue Panther') 64bit built on Apr 18 2014 18:23:38
Writing library : libebml v1.3.0 + libmatroska v1.4.1
Attachment : Yes
Video
ID : 1
Format : AVC
Format/Info : Advanced Video Codec
Format profile : High@L4.1
Format settings, CABAC : Yes
Format settings, ReFrames : 4 frames
Codec ID : V_MPEG4/ISO/AVC
Duration : 1h 44mn
Bit rate : 14.0 Mbps
Width : 1 920 pixels
Height : 816 pixels
Display aspect ratio : 2.35:1
Frame rate : 59.940 fps
Color space : YUV
Chroma subsampling : 4:2:0
Bit depth : 8 bits
Scan type : Progressive
Bits/(Pixel*Frame) : 0.149
Stream size : 10.0 GiB (88%)
Title : R.G. HD-Films by Tiberiumsun69 60fps
Writing library : x264 core 130 r2273 b3065e6
Encoding settings : cabac=1 / ref=4 / deblock=1:-1:-1 / analyse=0x3:0 / me=umh / subme=9 / psy=1 / psy_rd=1.00:0.00 / mixed_ref=1 / me_range=44 / chroma_me=0 / trellis=2 / 8x8dct=1 / cqm=0 / deadzone=21,11 / fast_pskip=0 / chroma_qp_offset=-2 / threads=12 / lookahead_threads=1 / sliced_threads=0 / nr=0 / decimate=0 / interlaced=0 / bluray_compat=0 / constrained_intra=0 / bframes=5 / b_pyramid=2 / b_adapt=2 / b_bias=0 / direct=3 / weightb=1 / open_gop=0 / weightp=2 / keyint=250 / keyint_min=59 / scenecut=40 / intra_refresh=0 / rc_lookahead=60 / rc=2pass / mbtree=1 / bitrate=14000 / ratetol=1.0 / qcomp=0.80 / qpmin=0 / qpmax=69 / qpstep=4 / cplxblur=20.0 / qblur=0.5 / ip_ratio=1.40 / aq=1:0.80
Language : English
Default : Yes
Forced : No
Audio #1
ID : 2
Format : AC-3
Format/Info : Audio Coding 3
Mode extension : CM (complete main)
Codec ID : A_AC3
Duration : 1h 44mn
Bit rate mode : Constant
Bit rate : 448 Kbps
Channel(s) : 6 channels
Channel positions : Front: L C R, Side: L R, LFE
Sampling rate : 48.0 KHz
Bit depth : 16 bits
Compression mode : Lossy
Stream size : 334 MiB (3%)
Title : Дубляж
Language : Russian
Default : Yes
Forced : No
Audio #2
ID : 3
Format : AC-3
Format/Info : Audio Coding 3
Mode extension : CM (complete main)
Codec ID : A_AC3
Duration : 1h 44mn
Bit rate mode : Constant
Bit rate : 224 Kbps
Channel(s) : 2 channels
Channel positions : Front: L R
Sampling rate : 48.0 KHz
Bit depth : 16 bits
Compression mode : Lossy
Stream size : 167 MiB (1%)
Title : Многоголосый, закадровый СТС
Language : Russian
Default : No
Forced : No
Audio #3
ID : 4
Format : AC-3
Format/Info : Audio Coding 3
Mode extension : CM (complete main)
Codec ID : A_AC3
Duration : 1h 44mn
Bit rate mode : Constant
Bit rate : 224 Kbps
Channel(s) : 2 channels
Channel positions : Front: L R
Sampling rate : 48.0 KHz
Bit depth : 16 bits
Compression mode : Lossy
Stream size : 167 MiB (1%)
Title : Многоголосый, закадровый ТНТ (VHS)
Language : Russian
Default : No
Forced : No
Audio #4
ID : 5
Format : AC-3
Format/Info : Audio Coding 3
Mode extension : CM (complete main)
Codec ID : A_AC3
Duration : 1h 44mn
Bit rate mode : Constant
Bit rate : 640 Kbps
Channel(s) : 6 channels
Channel positions : Front: L C R, Side: L R, LFE
Sampling rate : 48.0 KHz
Bit depth : 16 bits
Compression mode : Lossy
Stream size : 477 MiB (4%)
Title : Оригинал
Language : English
Default : No
Forced : No
Text #1
ID : 6
Format : UTF-8
Codec ID : S_TEXT/UTF8
Codec ID/Info : UTF-8 Plain Text
Title : Полные
Language : Russian
Default : No
Forced : No
Text #2
ID : 7
Format : UTF-8
Codec ID : S_TEXT/UTF8
Codec ID/Info : UTF-8 Plain Text
Title : Полные
Language : English
Default : No
Forced : No
Menu
00:00:00.000 : en:Scary Scarecrow
00:05:10.047 : en:The Dog Knows
00:06:29.167 : en:Day 22's Victim
00:08:15.816 : en:"Down and Disabled"
00:13:12.570 : en:Symbolic Weapon
00:15:37.382 : en:Break Before the Storm
00:18:16.582 : en:Memories of Hitchcock
00:20:55.450 : en:Futile Warning
00:23:30.021 : en:Sharp Teeth
00:26:39.877 : en:A Flare for Killing
00:29:12.988 : en:So Long, Coach
00:30:59.845 : en:"What Was It?"
00:32:42.197 : en:The Tension Rises
00:35:56.350 : en:Picking Its Prey
00:39:58.842 : en:A Dead Boy Speaks
00:42:47.719 : en:The Smell of Fear
00:45:45.396 : en:Making Contact
00:48:58.339 : en:Skewering a Beast
00:51:03.631 : en:No Exit
00:55:38.739 : en:A Wing and No Prayer
00:57:55.834 : en:He Lost His Head!
01:00:20.395 : en:Time to Split
01:05:48.431 : en:Run for Your Life!
01:09:43.958 : en:"You Can't Stop It"
01:11:35.945 : en:"Don't Make Me Go!"
01:13:14.544 : en:A Show of Power
01:16:37.872 : en:Going Creep Shooting
01:20:57.923 : en:"A Big Ugly Bug"
01:24:58.247 : en:Life-or-Death Battle
01:29:54.418 : en:"It Isn't Dead"
01:34:01.748 : en:Bat Out of Hell
01:38:15.752 : en:End Credits

Скриншоты

Просьба к переливающим на другие сайты, в оформлении указывайте пожалуйста авторство рипа - Tiberiumsun69

[Цитировать]
ENIGMA

Большое Спасибо Овации
 
Показать сообщения:    

Текущее время: 03-Дек 16:39

Часовой пояс: UTC + 3


Вы не можете начинать темы
Вы не можете отвечать на сообщения
Вы не можете редактировать свои сообщения
Вы не можете удалять свои сообщения
Вы не можете голосовать в опросах
Вы не можете прикреплять файлы к сообщениям
Вы не можете скачивать файлы