[Цитировать]
Kryl

Идентификация Борна

-Название: Идентификация Борна
Оригинальное название: The Bourne Identity
Год выпуска: 2002
Страна: США, Германия, Чехия
Жанр: боевик, триллер детектив
Продолжительность: 01:58:37
Перевод: Дубляж - [Лицензия]
Субтитры: русские (Форсированные), русские (Полные), английские (Полные)-Режиссер: Даг Лайман-В ролях: Мэтт Дэймон (Jason Bourne), Франка Потенте (Marie), Крис Купер (Conklin), Клайв Оуэн (The Professor), Брайан Кокс (Ward Abbott), Адевале Акинойе-Агбаже (Wombosi), Гэбриел Манн (Zorn), Джулия Стайлз (Nicolette), Тим Даттон (Eamon), Уолтон Гоггинс (Research Tech), Джош Хэмилтон (Research Tech), Орсо Мария Гуэррини (Giancarlo)-Описание:
Команда итальянского рыболовецкого судна находит в водах Средиземного моря тело мужчины. У него два пулевых ранения в спине и имплантированный в бедро микрофильм, помеченный номером швейцарского банка. Когда незнакомец приходит в себя, оказывается, что он не помнит кто он, и что с ним случилось, однако он может говорить на нескольких языках и обладает другими необычными способностями.
Получив в Цюрихе деньги с указанного банковского счета, он узнает свое имя - Джейсон Борн. Но настоящее это его имя или нет? Пытаясь восстановить свое прошлое, он находит свой адрес в Париже, но вместе с этим понимает, что отслеживается убийцей. Борн уговаривает немецкую студентку Мэри отвезти его в Париж, чтобы выяснить все о своем прошлом и понять, кто хочет его убить...-Рейтинг:

MPAA: PG-13 - Детям до 13 лет просмотр не желателен-Качество: BDRip-AVC 60fps
Формат: MKV
Видео: AVC, 1024x432 (2.35:1), 4000 kbps, 59,940 fps, 0,151 bpp
Аудио: русский / AC3 / 5.1 / 48 kHz / 640 kbps / 16 bit
Навигация по главам: есть- -

ОтчетМедиаИнфо

Video
ID : 1
Format : AVC
Format/Info : Advanced Video Codec
Format profile : High@L4.1
Format settings, CABAC : Yes
Format settings, ReFrames : 4 frames
Codec ID : V_MPEG4/ISO/AVC
Duration : 1h 58mn
Bit rate : 4 000 Kbps
Width : 1 024 pixels
Height : 432 pixels
Display aspect ratio : 2.35:1
Frame rate : 59.940 fps
Color space : YUV
Chroma subsampling : 4:2:0
Bit depth : 8 bits
Scan type : Progressive
Bits/(Pixel*Frame) : 0.151
Stream size : 3.24 GiB (84%)
Title : Tiberiumsun69
Writing library : x264 core 146 r2538 121396c
Encoding settings : cabac=1 / ref=3 / deblock=1:0:0 / analyse=0x3:0x113 / me=umh / subme=9 / psy=1 / psy_rd=1.00:0.10 / mixed_ref=1 / me_range=32 / chroma_me=1 / trellis=2 / 8x8dct=1 / cqm=0 / deadzone=21,11 / fast_pskip=0 / chroma_qp_offset=-3 / threads=12 / lookahead_threads=3 / sliced_threads=0 / nr=0 / decimate=1 / interlaced=0 / bluray_compat=0 / constrained_intra=0 / bframes=16 / b_pyramid=2 / b_adapt=2 / b_bias=0 / direct=3 / weightb=1 / open_gop=0 / weightp=2 / keyint=600 / keyint_min=59 / scenecut=40 / intra_refresh=0 / rc_lookahead=40 / rc=2pass / mbtree=0 / bitrate=4000 / ratetol=1.0 / qcomp=0.60 / qpmin=0 / qpmax=69 / qpstep=4 / cplxblur=20.0 / qblur=0.5 / vbv_maxrate=14000 / vbv_bufsize=14000 / nal_hrd=none / filler=0 / ip_ratio=1.40 / pb_ratio=1.30 / aq=1:1.00
Language : English
Default : Yes
Forced : No
Audio
ID : 2
Format : AC-3
Format/Info : Audio Coding 3
Mode extension : CM (complete main)
Codec ID : A_AC3
Duration : 1h 58mn
Bit rate mode : Constant
Bit rate : 640 Kbps
Channel(s) : 6 channels
Channel positions : Front: L C R, Side: L R, LFE
Sampling rate : 48.0 KHz
Bit depth : 16 bits
Compression mode : Lossy
Stream size : 543 MiB (14%)
Title : Дубляж
Language : Russian
Default : Yes
Forced : No
Text #1
ID : 3
Format : UTF-8
Codec ID : S_TEXT/UTF8
Codec ID/Info : UTF-8 Plain Text
Title : Форсированные
Language : Russian
Default : Yes
Forced : No
Text #2
ID : 4
Format : UTF-8
Codec ID : S_TEXT/UTF8
Codec ID/Info : UTF-8 Plain Text
Title : Полные
Language : Russian
Default : No
Forced : No
Text #3
ID : 5
Format : UTF-8
Codec ID : S_TEXT/UTF8
Codec ID/Info : UTF-8 Plain Text
Title : Полные
Language : English
Default : No
Forced : No
Menu
00:00:00.000 : en:00:00:00.000
00:05:00.000 : en:00:05:00.000
00:10:00.000 : en:00:10:00.000
00:15:00.000 : en:00:15:00.000
00:20:00.000 : en:00:20:00.000
00:25:00.000 : en:00:25:00.000
00:30:00.000 : en:00:30:00.000
00:35:00.000 : en:00:35:00.000
00:40:00.000 : en:00:40:00.000
00:45:00.000 : en:00:45:00.000
00:50:00.000 : en:00:50:00.000
00:55:00.000 : en:00:55:00.000
01:00:00.000 : en:01:00:00.000
01:05:00.000 : en:01:05:00.000
01:10:00.000 : en:01:10:00.000
01:15:00.000 : en:01:15:00.000
01:20:00.000 : en:01:20:00.000
01:25:00.000 : en:01:25:00.000
01:30:00.000 : en:01:30:00.000
01:35:00.000 : en:01:35:00.000
01:40:00.000 : en:01:40:00.000
01:45:00.000 : en:01:45:00.000
01:50:00.000 : en:01:50:00.000
01:55:00.000 : en:01:55:00.000

Скриншоты

Превосходство Борна

-Название: Превосходство Борна
Оригинальное название: The Bourne Supremacy
Год выпуска: 2004
Страна: США, Германия
Жанр: боевик, триллер
Продолжительность: 01:48:31
Перевод: Дубляж - [Лицензия]
Субтитры: русские (Полные), английские (Полные)-Режиссер: Пол Гринграсс-В ролях: Мэтт Дэймон (Jason Bourne), Карл Урбан (Kirill), Брайан Кокс (Ward Abbott), Джоан Аллен (Pamela Landy), Джулия Стайлз (Nicky), Франка Потенте (Marie), Гэбриел Манн (Danny Zorn), Мартон Чокаш (Jarda), Том Гэллоп (Tom Cronin), Карел Роден (Gretkov), Джон Бедфорд Ллойд (Teddy), Этан Сэндлер (Kurt)-Описание:
Суперагент ЦРУ Джейсон Борн вновь оказывается подставленным и вынужден помимо возложенной на него задачи государственного значения спасать себя, а заодно и других небезразличных ему людей.
В процессе выполнения миссии судьба заносит Борна в Россию, где его ждет множество характерных для страны, но непривычных западному человеку сюрпризов.-Рейтинг:

MPAA: PG-13 - Детям до 13 лет просмотр не желателен-Качество: BDRip-AVC 60fps
Формат: MKV
Видео: AVC, 1024x432 (2.35:1), 4000 kbps, 59,940 fps, 0,151 bpp
Аудио: русский / AC3 / 5.1 / 48 kHz / 640 kbps / 16 bit
Навигация по главам: есть- -

ОтчетМедиаИнфо

General
Unique ID : 248483121439777684396592831760251401970 (0xBAF01BC1C72BAB44BF3E48B3D48AB6F2)
Format : Matroska
Format version : Version 4 / Version 2
File size : 3.52 GiB
Duration : 1h 48mn
Overall bit rate : 4 643 Kbps
Movie name : Tiberiumsun69
Encoded date : UTC 2015-11-11 17:09:07
Writing application : mkvmerge v8.3.0 ('Over the Horizon') 64bit
Writing library : libebml v1.3.1 + libmatroska v1.4.2
Attachment : Yes
Video
ID : 1
Format : AVC
Format/Info : Advanced Video Codec
Format profile : High@L4.1
Format settings, CABAC : Yes
Format settings, ReFrames : 4 frames
Codec ID : V_MPEG4/ISO/AVC
Duration : 1h 48mn
Bit rate : 4 000 Kbps
Width : 1 024 pixels
Height : 432 pixels
Display aspect ratio : 2.35:1
Frame rate : 59.940 fps
Color space : YUV
Chroma subsampling : 4:2:0
Bit depth : 8 bits
Scan type : Progressive
Bits/(Pixel*Frame) : 0.151
Stream size : 2.96 GiB (84%)
Title : Tiberiumsun69
Writing library : x264 core 146 r2538 121396c
Encoding settings : cabac=1 / ref=3 / deblock=1:0:0 / analyse=0x3:0x113 / me=umh / subme=9 / psy=1 / psy_rd=1.00:0.10 / mixed_ref=1 / me_range=32 / chroma_me=1 / trellis=2 / 8x8dct=1 / cqm=0 / deadzone=21,11 / fast_pskip=0 / chroma_qp_offset=-3 / threads=12 / lookahead_threads=3 / sliced_threads=0 / nr=0 / decimate=1 / interlaced=0 / bluray_compat=0 / constrained_intra=0 / bframes=16 / b_pyramid=2 / b_adapt=2 / b_bias=0 / direct=3 / weightb=1 / open_gop=0 / weightp=2 / keyint=600 / keyint_min=59 / scenecut=40 / intra_refresh=0 / rc_lookahead=40 / rc=2pass / mbtree=0 / bitrate=4000 / ratetol=1.0 / qcomp=0.60 / qpmin=0 / qpmax=69 / qpstep=4 / cplxblur=20.0 / qblur=0.5 / vbv_maxrate=14000 / vbv_bufsize=14000 / nal_hrd=none / filler=0 / ip_ratio=1.40 / pb_ratio=1.30 / aq=1:1.00
Language : English
Default : Yes
Forced : No
Audio
ID : 2
Format : AC-3
Format/Info : Audio Coding 3
Mode extension : CM (complete main)
Codec ID : A_AC3
Duration : 1h 48mn
Bit rate mode : Constant
Bit rate : 640 Kbps
Channel(s) : 6 channels
Channel positions : Front: L C R, Side: L R, LFE
Sampling rate : 48.0 KHz
Bit depth : 16 bits
Compression mode : Lossy
Stream size : 497 MiB (14%)
Title : Дубляж
Language : Russian
Default : Yes
Forced : No
Text #1
ID : 3
Format : UTF-8
Codec ID : S_TEXT/UTF8
Codec ID/Info : UTF-8 Plain Text
Title : Полные
Language : Russian
Default : No
Forced : No
Text #2
ID : 4
Format : UTF-8
Codec ID : S_TEXT/UTF8
Codec ID/Info : UTF-8 Plain Text
Title : Полные
Language : English
Default : No
Forced : No
Menu
00:00:00.000 : :Chapter 01
00:04:31.771 : :Chapter 02
00:09:45.793 : :Chapter 03
00:15:24.340 : :Chapter 04
00:22:02.821 : :Chapter 05
00:23:35.622 : :Chapter 06
00:29:14.043 : :Chapter 07
00:35:14.320 : :Chapter 08
00:38:06.242 : :Chapter 09
00:44:58.737 : :Chapter 10
00:48:01.295 : :Chapter 11
00:52:52.419 : :Chapter 12
00:55:27.032 : :Chapter 13
01:01:02.784 : :Chapter 14
01:02:40.298 : :Chapter 15
01:06:52.550 : :Chapter 16
01:13:54.138 : :Chapter 17
01:18:13.855 : :Chapter 18
01:24:53.046 : :Chapter 19
01:27:43.383 : :Chapter 20
01:33:06.872 : :Chapter 21
01:34:51.560 : :Chapter 22
01:40:15.342 : :Chapter 23
01:42:01.031 : :Chapter 24
01:48:25.665 : :Chapter 25

Скриншоты

Ультиматум Борна

Ультиматум Борна / The Bourne Ultimatum -Название: Ультиматум Борна
Оригинальное название: The Bourne Ultimatum
Год выпуска: 2007
Страна: США, Германия
Жанр: боевик, триллер
Продолжительность: 01:55:13
Перевод: Дубляж - [Лицензия]
Субтитры: русские (Полные), английские (Полные)-Режиссер: Пол Гринграсс-В ролях: Мэтт Дэймон (Jason Bourne), Джулия Стайлз (Nicky Parsons), Дэвид Стрэтэйрн (Noah Vosen), Джоан Аллен (Pam Landy), Пэдди Консидайн (Simon Ross), Эдгар Рамирес (Paz), Альберт Финни (Dr. Albert Hirsch), Скотт Гленн (Ezra Kramer), Том Гэллоп (Tom Cronin), Кори Джонсон (Wills), Даниэль Брюль (Martin Kreutz), Джои Анса (Desh)-Описание:
Он хотел одного - исчезнуть. Вместо этого за Борном теперь охотятся люди, которые сделали его таким, какой он есть. Он потерял память и человека, которого он любил. Но его не удается сдержать даже новому поколению профессиональных убийц. У него только одна цель: вернуться к началу и узнать кем он был, Джейсон Борн.
Он мечется от Москвы к Парижу, через Мадрид и Лондон в Танжер и Нью-Йорк, пытаясь раскрыть последние загадки своего прошлого, в то время, как правительственные агенты и Интерпол пытаются помешать ему восстановить всю картину до конца.-Рейтинг:

MPAA: PG-13 - Детям до 13 лет просмотр не желателен-Качество: BDRip-AVC 60fps
Формат: MKV
Видео: AVC, 1024x424 (2.40:1), 4000 kbps, 59,940 fps, 0,154 bpp
Аудио: русский / AC3 / 5.1 / 48 kHz / 640 kbps / 16 bit
Навигация по главам: есть- -

ОтчетМедиаИнфо

General
Unique ID : 177828277497301625710416867647257280340 (0x85C87AFF5DDBBEF58F85BFC55A177F54)
Format : Matroska
Format version : Version 4 / Version 2
File size : 3.74 GiB
Duration : 1h 55mn
Overall bit rate : 4 641 Kbps
Movie name : Tiberiumsun69
Encoded date : UTC 2015-11-11 17:17:16
Writing application : mkvmerge v8.3.0 ('Over the Horizon') 64bit
Writing library : libebml v1.3.1 + libmatroska v1.4.2
Attachment : Yes
Video
ID : 1
Format : AVC
Format/Info : Advanced Video Codec
Format profile : High@L4.1
Format settings, CABAC : Yes
Format settings, ReFrames : 4 frames
Codec ID : V_MPEG4/ISO/AVC
Duration : 1h 55mn
Bit rate : 4 000 Kbps
Width : 1 024 pixels
Height : 424 pixels
Display aspect ratio : 2.40:1
Frame rate : 59.940 fps
Color space : YUV
Chroma subsampling : 4:2:0
Bit depth : 8 bits
Scan type : Progressive
Bits/(Pixel*Frame) : 0.154
Stream size : 3.15 GiB (84%)
Title : Tiberiumsun69
Writing library : x264 core 146 r2538 121396c
Encoding settings : cabac=1 / ref=3 / deblock=1:0:0 / analyse=0x3:0x113 / me=umh / subme=9 / psy=1 / psy_rd=1.00:0.10 / mixed_ref=1 / me_range=32 / chroma_me=1 / trellis=2 / 8x8dct=1 / cqm=0 / deadzone=21,11 / fast_pskip=0 / chroma_qp_offset=-3 / threads=12 / lookahead_threads=3 / sliced_threads=0 / nr=0 / decimate=1 / interlaced=0 / bluray_compat=0 / constrained_intra=0 / bframes=16 / b_pyramid=2 / b_adapt=2 / b_bias=0 / direct=3 / weightb=1 / open_gop=0 / weightp=2 / keyint=600 / keyint_min=59 / scenecut=40 / intra_refresh=0 / rc_lookahead=40 / rc=2pass / mbtree=0 / bitrate=4000 / ratetol=1.0 / qcomp=0.60 / qpmin=0 / qpmax=69 / qpstep=4 / cplxblur=20.0 / qblur=0.5 / vbv_maxrate=14000 / vbv_bufsize=14000 / nal_hrd=none / filler=0 / ip_ratio=1.40 / pb_ratio=1.30 / aq=1:1.00
Language : English
Default : Yes
Forced : No
Audio
ID : 2
Format : AC-3
Format/Info : Audio Coding 3
Mode extension : CM (complete main)
Codec ID : A_AC3
Duration : 1h 55mn
Bit rate mode : Constant
Bit rate : 640 Kbps
Channel(s) : 6 channels
Channel positions : Front: L C R, Side: L R, LFE
Sampling rate : 48.0 KHz
Bit depth : 16 bits
Compression mode : Lossy
Stream size : 527 MiB (14%)
Title : Дубляж
Language : Russian
Default : Yes
Forced : No
Text #1
ID : 3
Format : UTF-8
Codec ID : S_TEXT/UTF8
Codec ID/Info : UTF-8 Plain Text
Title : Полные
Language : Russian
Default : No
Forced : No
Text #2
ID : 4
Format : UTF-8
Codec ID : S_TEXT/UTF8
Codec ID/Info : UTF-8 Plain Text
Title : Полные
Language : English
Default : No
Forced : No
Menu
00:00:00.000 : :Chapter 01
00:04:02.241 : :Chapter 02
00:09:46.126 : :Chapter 03
00:13:57.211 : :Chapter 04
00:21:01.843 : :Chapter 05
00:27:52.045 : :Chapter 06
00:31:46.863 : :Chapter 07
00:38:44.447 : :Chapter 08
00:43:51.753 : :Chapter 09
00:50:02.916 : :Chapter 10
00:58:12.780 : :Chapter 11
01:05:35.764 : :Chapter 12
01:10:35.898 : :Chapter 13
01:15:49.586 : :Chapter 14
01:20:36.957 : :Chapter 15
01:25:08.269 : :Chapter 16
01:31:34.779 : :Chapter 17
01:35:58.292 : :Chapter 18
01:42:11.833 : :Chapter 19
01:46:07.359 : :Chapter 20
01:55:13.655 : :Chapter 21

Скриншоты

Эволюция Борна

Эволюция Борна / The Bourne Legacy -Название: Эволюция Борна
Оригинальное название: The Bourne Legacy
Год выпуска: 2012
Страна: США, Япония
Жанр: боевик, триллер, детектив, приключения
Продолжительность: 02:15:02
Перевод: Дубляж - [Лицензия]
Субтитры: русские (Форсированные), русские (Полные), английские (Полные)-Режиссер: Тони Гилрой-В ролях: Джереми Реннер (Aaron Cross), Рэйчел Вайс (Dr. Marta Shearing), Эдвард Нортон (Col Eric Byer, USAF, Ret.), Стейси Кич (Adm Mark Turso USN Ret.), Оскар Айзек (Outcome #3), Желько Иванек (Dr. Donald Foite), Донна Мерфи (Dita Mandy), Майкл Чернус (Arthur Ingram), Кори Столл (Zev Vendel), Элизабет Марвел (Dr. Connie Dowd), Джоан Аллен (Pam Landy), Альберт Финни (Dr. Albert Hirsch)-Описание:
В игре всегда несколько фигур. Одна из них - Джейсон Борн, другая - совершенный агент Аарон Кросс. Их возможности безграничны. Но даже у идеального оружия бывают сбои...-Рейтинг:

MPAA: PG-13 - Детям до 13 лет просмотр не желателен-Качество: BDRip-AVC 60fps
Формат: MKV
Видео: AVC, 1024x424 (2.40:1), 3545 kbps, 59,940 fps, 0,136 bpp
Аудио: русский / AC3 / 5.1 / 48 kHz / 640 kbps / 16 bit
Навигация по главам: есть- -

ОтчетМедиаИнфо

General
Unique ID : 212341714150103828501047011846484513079 (0x9FBF86CD733ACA078C67C2CD5525D137)
Format : Matroska
Format version : Version 4 / Version 2
File size : 3.95 GiB
Duration : 2h 15mn
Overall bit rate : 4 189 Kbps
Movie name : Tiberiumsun69
Encoded date : UTC 2015-11-11 17:24:53
Writing application : mkvmerge v8.3.0 ('Over the Horizon') 64bit
Writing library : libebml v1.3.1 + libmatroska v1.4.2
Attachment : Yes
Video
ID : 1
Format : AVC
Format/Info : Advanced Video Codec
Format profile : High@L4.1
Format settings, CABAC : Yes
Format settings, ReFrames : 4 frames
Codec ID : V_MPEG4/ISO/AVC
Duration : 2h 15mn
Bit rate : 3 545 Kbps
Width : 1 024 pixels
Height : 424 pixels
Display aspect ratio : 2.40:1
Frame rate : 59.940 fps
Color space : YUV
Chroma subsampling : 4:2:0
Bit depth : 8 bits
Scan type : Progressive
Bits/(Pixel*Frame) : 0.136
Stream size : 3.27 GiB (83%)
Title : Tiberiumsun69
Writing library : x264 core 146 r2538 121396c
Encoding settings : cabac=1 / ref=3 / deblock=1:0:0 / analyse=0x3:0x113 / me=umh / subme=9 / psy=1 / psy_rd=1.00:0.10 / mixed_ref=1 / me_range=32 / chroma_me=1 / trellis=2 / 8x8dct=1 / cqm=0 / deadzone=21,11 / fast_pskip=0 / chroma_qp_offset=-3 / threads=12 / lookahead_threads=3 / sliced_threads=0 / nr=0 / decimate=1 / interlaced=0 / bluray_compat=0 / constrained_intra=0 / bframes=16 / b_pyramid=2 / b_adapt=2 / b_bias=0 / direct=3 / weightb=1 / open_gop=0 / weightp=2 / keyint=600 / keyint_min=59 / scenecut=40 / intra_refresh=0 / rc_lookahead=40 / rc=2pass / mbtree=0 / bitrate=3545 / ratetol=1.0 / qcomp=0.60 / qpmin=0 / qpmax=69 / qpstep=4 / cplxblur=20.0 / qblur=0.5 / vbv_maxrate=14000 / vbv_bufsize=14000 / nal_hrd=none / filler=0 / ip_ratio=1.40 / pb_ratio=1.30 / aq=1:1.00
Language : English
Default : Yes
Forced : No
Audio
ID : 2
Format : AC-3
Format/Info : Audio Coding 3
Mode extension : CM (complete main)
Codec ID : A_AC3
Duration : 2h 15mn
Bit rate mode : Constant
Bit rate : 640 Kbps
Channel(s) : 6 channels
Channel positions : Front: L C R, Side: L R, LFE
Sampling rate : 48.0 KHz
Bit depth : 16 bits
Compression mode : Lossy
Stream size : 618 MiB (15%)
Title : Дубляж
Language : Russian
Default : Yes
Forced : No
Text #1
ID : 3
Format : UTF-8
Codec ID : S_TEXT/UTF8
Codec ID/Info : UTF-8 Plain Text
Title : Форсированные
Language : Russian
Default : Yes
Forced : No
Text #2
ID : 4
Format : UTF-8
Codec ID : S_TEXT/UTF8
Codec ID/Info : UTF-8 Plain Text
Title : Полные
Language : Russian
Default : No
Forced : No
Text #3
ID : 5
Format : UTF-8
Codec ID : S_TEXT/UTF8
Codec ID/Info : UTF-8 Plain Text
Title : Полные
Language : English
Default : No
Forced : No
Menu
00:00:00.000 : en:
00:08:43.690 : en:
00:14:26.616 : en:
00:19:57.488 : en:
00:27:53.297 : en:
00:34:18.265 : en:
00:42:52.403 : en:
00:47:57.374 : en:
00:53:56.066 : en:
01:00:29.167 : en:
01:07:36.636 : en:
01:14:36.972 : en:
01:22:39.204 : en:
01:28:37.687 : en:
01:36:39.043 : en:
01:41:05.685 : en:
01:45:07.968 : en:
01:52:15.520 : en:
02:00:07.283 : en:
02:05:06.416 : en:

Скриншоты

 
Показать сообщения:    

Текущее время: 09-Дек 22:18

Часовой пояс: UTC + 3


Вы не можете начинать темы
Вы не можете отвечать на сообщения
Вы не можете редактировать свои сообщения
Вы не можете удалять свои сообщения
Вы не можете голосовать в опросах
Вы не можете прикреплять файлы к сообщениям
Вы не можете скачивать файлы