Властелин колец: Трилогия / The Lord of the Rings: Trilogy (2001-2003) BDRip-AVC | Extended Cut | 60 fps К звёздам / Ad Astra (2019) BDRip 1080p | 60 fps Принц Персии: Пески времени / Prince of Persia: The Sands of Time (2010) BDRip 1080p | 60 fps 21 мост / 21 Bridges (2019) BDRip 1080p | 60 fps Достать ножи / Knives Out (2019) BDRip 1080p | 60 fps Паразиты / Gisaengchung (2019) BDRip 1080p | 60 fps Удивительное путешествие доктора Дулиттла / Dolittle (2020) BDRip 1080p | 60 fps День, когда Земля остановилась / The Day the Earth Stood Still (2008) BDRip 1080p | 60 fps
  1. bot

    Longevity:
    5 years 11 months
    Posts:
    410
    Gender:
    Unknown
    «Вы знаете его имя»- Информация
    Название: Джейсон Борн
    Оригинальное название: Jason Bourne
    Год выхода: 2016
    Жанр: Боевик, триллер
    Режиссер: Пол Гринграсс
    Сценарий: Пол Гринграсс, Кристофер Раус, Роберт Ладлэм
    Продюсер: Мэтт Дэймон, Грегори Гудман, Пол Гринграсс
    В ролях: Мэтт Дэймон, Алисия Викандер, Томми Ли Джонс, Венсан Кассель, Джулия Стайлз, Риз Ахмед, Ато Эссонда, Скотт Шеперд, Билл Кэмп, Винцец Кифер
    --Сюжет:
    Мир на грани катастрофы, а значит пришло время ему вернуться. Неаполь, Мюнхен, Нью-Йорк — его имя знают повсюду. Элитный суперагент, лучший из лучших, даже в Лас-Вегасе игра пойдет по его правилам. Он — Джейсон Борн.- Страна: Великобритания, Китай, США
    Продолжительность: 02:03:11

    Файл
    Кодек: MPEG4/ISO/AVC/H.264
    Формат: MKV
    Качество: BDRip 1080p | 60 fps
    Видео: 1920х800 | 59.940 fps | 10.0 Мбит/сек
    Аудио 1: DTS | 5.1 | 48 kHz | 768 kbps | 16 bit | 16 bit | Дубляж |
    Аудио 2: AC3 | 5.1 | 48 kHz | 448 kbps | 16 bit | 16 bit | Дубляж |
    Аудио 3: DTS-HD MA | 7.1 | 48 kHz | 7388 kbps | 24 bit | ENG |
    Субтитры: Русские, Eng

    MedifInfo

    Video
    ID : 1
    Format : AVC
    Format/Info : Advanced Video Codec
    Format profile : High@L4.2
    Format settings, CABAC : Yes
    Format settings, ReFrames : 4 frames
    Codec ID : V_MPEG4/ISO/AVC
    Duration : 2 h 3 min
    Bit rate : 10 000 kb/s
    Width : 1 920 pixels
    Height : 800 pixels
    Display aspect ratio : 2.40:1
    Frame rate mode : Constant
    Frame rate : 59.940 (59940/1000) FPS
    Color space : YUV
    Chroma subsampling : 4:2:0
    Bit depth : 8 bits
    Scan type : Progressive
    Bits/(Pixel*Frame) : 0.109
    Stream size : 8.59 GiB (54%)
    Writing library : x264 core 146 r2538 121396c
    Encoding settings : cabac=1 / ref=4 / deblock=1:0:0 / analyse=0x3:0x113 / me=umh / subme=11 / psy=1 / psy_rd=1.00:0.10 / mixed_ref=1 / me_range=32 / chroma_me=1 / trellis=2 / 8x8dct=1 / cqm=0 / deadzone=21,11 / fast_pskip=0 / chroma_qp_offset=-3 / threads=12 / lookahead_threads=1 / sliced_threads=0 / nr=0 / decimate=1 / interlaced=0 / bluray_compat=0 / constrained_intra=0 / bframes=5 / b_pyramid=2 / b_adapt=2 / b_bias=0 / direct=3 / weightb=1 / open_gop=0 / weightp=2 / keyint=250 / keyint_min=25 / scenecut=40 / intra_refresh=0 / rc_lookahead=40 / rc=2pass / mbtree=0 / bitrate=10000 / ratetol=1.0 / qcomp=0.60 / qpmin=0 / qpmax=69 / qpstep=4 / cplxblur=20.0 / qblur=0.5 / vbv_maxrate=14000 / vbv_bufsize=14000 / nal_hrd=none / filler=0 / ip_ratio=1.40 / pb_ratio=1.30 / aq=1:1.00
    Language : English
    Default : Yes
    Forced : No
    Audio #1
    ID : 2
    Format : DTS
    Format/Info : Digital Theater Systems
    Mode : 16
    Format settings, Endianness : Big
    Codec ID : A_DTS
    Duration : 2 h 3 min
    Bit rate mode : Constant
    Bit rate : 768 kb/s
    Channel(s) : 6 channels
    Channel positions : Front: L C R, Side: L R, LFE
    Sampling rate : 48.0 kHz
    Frame rate : 93.750 FPS (512 spf)
    Bit depth : 24 bits
    Compression mode : Lossy
    Delay relative to video : 8 s 635 ms
    Stream size : 677 MiB (4%)
    Title : Dub-DTS [License Blu-ray CEE]
    Language : Russian
    Default : Yes
    Forced : No
    Audio #2
    ID : 3
    Format : AC-3
    Format/Info : Audio Coding 3
    Mode extension : CM (complete main)
    Format settings, Endianness : Big
    Codec ID : A_AC3
    Duration : 2 h 3 min
    Bit rate mode : Constant
    Bit rate : 448 kb/s
    Channel(s) : 6 channels
    Channel positions : Front: L C R, Side: L R, LFE
    Sampling rate : 48.0 kHz
    Frame rate : 31.250 FPS (1536 spf)
    Bit depth : 16 bits
    Compression mode : Lossy
    Delay relative to video : 8 s 635 ms
    Stream size : 395 MiB (2%)
    Title : Dub-AC3 [License Blu-ray CEE]
    Language : Russian
    Default : No
    Forced : No
    Audio #3
    ID : 4
    Format : DTS
    Format/Info : Digital Theater Systems
    Format profile : X / MA / Core
    Mode : 16
    Format settings, Endianness : Big
    Codec ID : A_DTS
    Duration : 2 h 3 min
    Bit rate mode : Variable / Variable / Constant
    Bit rate : 7 388 kb/s / 7 388 kb/s / 1 509 kb/s
    Channel(s) : Object Based / 8 channels / 6 channels
    Channel positions : Object Based / Front: L C R, Side: L R, Back: L R, LFE / Front: L C R, Side: L R, LFE
    Sampling rate : / 48.0 kHz / 48.0 kHz
    Frame rate : 93.750 FPS (512 spf)
    Bit depth : / 24 bits / 24 bits
    Compression mode : / Lossless / Lossy
    Delay relative to video : 8 s 635 ms
    Stream size : 6.36 GiB (40%)
    Title : Original
    Language : English
    Default : No
    Forced : No
    Text #1
    ID : 5
    Format : UTF-8
    Codec ID : S_TEXT/UTF8
    Codec ID/Info : UTF-8 Plain Text
    Duration : 1 h 51 min
    Bit rate : 2 b/s
    Count of elements : 45
    Stream size : 1.99 KiB (0%)
    Title : Forced
    Language : Russian
    Default : Yes
    Forced : No
    Text #2
    ID : 6
    Format : UTF-8
    Codec ID : S_TEXT/UTF8
    Codec ID/Info : UTF-8 Plain Text
    Duration : 1 h 53 min
    Bit rate : 65 b/s
    Count of elements : 940
    Stream size : 54.6 KiB (0%)
    Title : Full
    Language : Russian
    Default : No
    Forced : No
    Menu
    00:00:00.000 : en:Chapter 1
    00:04:04.661 : en:Chapter 2
    00:08:21.543 : en:Chapter 3
    00:13:32.687 : en:Chapter 4
    00:18:28.316 : en:Chapter 5
    00:24:07.237 : en:Chapter 6
    00:29:21.259 : en:Chapter 7
    00:36:15.548 : en:Chapter 8
    00:42:20.663 : en:Chapter 9
    00:48:22.441 : en:Chapter 10
    00:55:12.184 : en:Chapter 11
    01:01:09.666 : en:Chapter 12
    01:08:32.483 : en:Chapter 13
    01:16:23.329 : en:Chapter 14
    01:24:45.330 : en:Chapter 15
    01:29:06.550 : en:Chapter 16
    01:37:52.909 : en:Chapter 17
    01:44:26.343 : en:Chapter 18
    01:48:03.727 : en:Chapter 19
    01:54:01.209 : en:Chapter 20
  2. Longevity:
    4 years 3 months
    Posts:
    1
    Gender:
    Unknown
    Английских сабов нету!


You cannot post new topics in this forum
You cannot reply to topics in this forum
You cannot edit your posts in this forum
You cannot delete your posts in this forum
You cannot vote in polls in this forum
You cannot attach files in this forum
You cannot download files in this forum