Агент Ева / Ava (2020) BDRip 1080p | 60 fps Пятый элемент / The Fifth Element (1997) BDRip 1080p | 60 fps Властелин колец: Трилогия / The Lord of the Rings: Trilogy (2001-2003) BDRip-AVC | Extended Cut | 60 fps Форпост / The Outpost (2020) BDRip 1080p | 60 fps Охота / The Hunt (2020) BDRip 1080p | 60 fps Вивариум / Vivarium (2019) BDRip 720p | 60 fps Ультрафиолет / Ultraviolet (2006) BDRip 1080p | 60 fps Поезд смерти / D-Railed (2018) BDRip 1080p | 60 fps
  1. Longevity:
    4 years 6 months
    Posts:
    1576
    Gender:
    Male
    Фильм «If you think you know the story, you don't know Jack» Фильм- Информация
    Название: Джек – покоритель великанов
    Оригинальное название: Jack the Giant Slayer
    Год выхода: 2013
    Жанр: фэнтези, приключения
    Режиссер: Брайан Сингер
    Сценарий: Даррен Лемке, Кристофер МакКуорри, Дэн Стадни
    Продюсер: Дэвид Добкин, Ори Мармур, Патрик МакКормик,
    В ролях: Николас Холт,Элинор Томлинсон,Юэн МакГрегор,Стэнли Туччи,Иэн МакШейн,Билл Найи,Джон Кассир,Бен Дэниелс,Юэн Бремнер,Эдди Марсан

    Сюжет:
    История начинается с похищения принцессы, что грозит нарушить хрупкий мир между людьми и великанами. Юный фермер возглавляет вылазку в царство гигантов в надежде спасти девушку.-- Страна: США
    Продолжительность: 01:54:21

    Файл
    Кодек: MPEG4/ISO/AVC H.264
    Формат: MKV
    Качество: BDRip 1080p | 60 fps
    Видео: 1920 x 800 (2.400) | 59.940 fps | 30,0 Мбит/сек
    Аудио 1: AC-3| 5.1 | 48 kHz | 640 Кбит/сек | 16 bit | Лицензия
    Аудио 2: AC-3| 5.1 | 48 kHz | 640 Кбит/сек | 16 bit | Лицензия
    Аудио 3: AC-3| 5.1 | 48 kHz | 640 Кбит/сек | 16 bit | Орегинал
    Субтитры:

    MedifInfo

    Видео
    Идентификатор : 1
    Формат : AVC
    Формат/Информация : Advanced Video Codec
    Профиль формата : [email protected]
    Параметр CABAC формата : Да
    Параметр ReFrames формата : 5 кадров
    Идентификатор кодека : V_MPEG4/ISO/AVC
    Продолжительность : 1 ч. 54 м.
    Битрейт : 30,0 Мбит/сек
    Ширина : 1920 пикселей
    Высота : 800 пикселей
    Соотношение сторон : 2,40:1
    Режим частоты кадров : Постоянный
    Частота кадров : 59,940 (60000/1001) кадров/сек
    Цветовое пространство : YUV
    Субдискретизация насыщенности : 4:2:0
    Битовая глубина : 8 бит
    Тип развёртки : Прогрессивная
    Бит/(Пиксели*Кадры) : 0.326
    Размер потока : 24,0 Гбайт (94%)
    Библиотека кодирования : x264 core 130 r2273 b3065e6
    Настройки программы : cabac=1 / ref=5 / deblock=1:-3:-3 / analyse=0x3:0x133 / me=esa / subme=9 / psy=1 / psy_rd=1.00:0.00 / mixed_ref=1 / me_range=35 / chroma_me=1 / trellis=2 / 8x8dct=1 / cqm=0 / deadzone=21,11 / fast_pskip=1 / chroma_qp_offset=-2 / threads=12 / lookahead_threads=1 / sliced_threads=0 / nr=0 / decimate=1 / interlaced=0 / bluray_compat=0 / constrained_intra=0 / bframes=3 / b_pyramid=2 / b_adapt=2 / b_bias=0 / direct=3 / weightb=1 / open_gop=0 / weightp=2 / keyint=599 / keyint_min=59 / scenecut=40 / intra_refresh=0 / rc_lookahead=60 / rc=2pass / mbtree=1 / bitrate=30013 / ratetol=1.0 / qcomp=0.60 / qpmin=0 / qpmax=69 / qpstep=4 / cplxblur=20.0 / qblur=0.5 / vbv_maxrate=62500 / vbv_bufsize=78125 / nal_hrd=none / ip_ratio=1.40 / aq=1:1.00
    Язык : English
    Default : Нет
    Forced : Нет
    Аудио #1
    Идентификатор : 2
    Формат : AC-3
    Формат/Информация : Audio Coding 3
    Расширение режима : CM (complete main)
    Параметр Endianness формата : Big
    Идентификатор кодека : A_AC3
    Продолжительность : 1 ч. 54 м.
    Вид битрейта : Постоянный
    Битрейт : 640 Кбит/сек
    Каналы : 6 каналов
    Расположение каналов : Front: L C R, Side: L R, LFE
    Частота : 48,0 КГц
    Частота кадров : 31,250 кадров/сек (1536 spf)
    Битовая глубина : 16 бит
    Метод сжатия : С потерями
    Размер потока : 524 Мбайт (2%)
    Заголовок : AC3 DD 5.1 @ 640 Kbps DUB - Blu-Ray CEE
    Язык : Russian
    Default : Да
    Forced : Да
    Аудио #2
    Идентификатор : 3
    Формат : AC-3
    Формат/Информация : Audio Coding 3
    Расширение режима : CM (complete main)
    Параметр Endianness формата : Big
    Идентификатор кодека : A_AC3
    Продолжительность : 1 ч. 54 м.
    Вид битрейта : Постоянный
    Битрейт : 640 Кбит/сек
    Каналы : 6 каналов
    Расположение каналов : Front: L C R, Side: L R, LFE
    Частота : 48,0 КГц
    Частота кадров : 31,250 кадров/сек (1536 spf)
    Битовая глубина : 16 бит
    Метод сжатия : С потерями
    Размер потока : 523 Мбайт (2%)
    Заголовок : AC3 DD 5.1 @ 640 Kbps DUB - Blu-Ray CEE
    Язык : Ukrainian
    Default : Нет
    Forced : Нет
    Аудио #3
    Идентификатор : 4
    Формат : AC-3
    Формат/Информация : Audio Coding 3
    Расширение режима : CM (complete main)
    Параметр Endianness формата : Big
    Идентификатор кодека : A_AC3
    Продолжительность : 1 ч. 54 м.
    Вид битрейта : Постоянный
    Битрейт : 640 Кбит/сек
    Каналы : 6 каналов
    Расположение каналов : Front: L C R, Side: L R, LFE
    Частота : 48,0 КГц
    Частота кадров : 31,250 кадров/сек (1536 spf)
    Битовая глубина : 16 бит
    Метод сжатия : С потерями
    Размер потока : 523 Мбайт (2%)
    Заголовок : AC3 DD 5.1 @ 640 Kbps Original - Blu-Ray US
    Язык : English
    Default : Нет
    Forced : Нет
    Текст #1
    Идентификатор : 5
    Формат : UTF-8
    Идентификатор кодека : S_TEXT/UTF8
    Идентификатор кодека/Информация : UTF-8 Plain Text
    Продолжительность : 1 ч. 47 м.
    Битрейт : 0 бит/сек
    Count of elements : 3
    Размер потока : 72,0 байт (0%)
    Заголовок : Forced
    Язык : Russian
    Default : Да
    Forced : Да
    Текст #2
    Идентификатор : 6
    Формат : UTF-8
    Идентификатор кодека : S_TEXT/UTF8
    Идентификатор кодека/Информация : UTF-8 Plain Text
    Продолжительность : 1 ч. 43 м.
    Битрейт : 65 бит/сек
    Count of elements : 1197
    Размер потока : 49,6 Кбайт (0%)
    Заголовок : Full
    Язык : Russian
    Default : Нет
    Forced : Нет
    Текст #3
    Идентификатор : 7
    Формат : UTF-8
    Идентификатор кодека : S_TEXT/UTF8
    Идентификатор кодека/Информация : UTF-8 Plain Text
    Продолжительность : 1 ч. 53 м.
    Битрейт : 45 бит/сек
    Count of elements : 1467
    Размер потока : 38,0 Кбайт (0%)
    Язык : English
    Default : Нет
    Forced : Нет


    Last edited by Талямба on 2020-07-28 00:20; edited 2 times in total
  2. Longevity:
    4 years 5 months
    Posts:
    10
    Gender:
    Unknown
    ты можешь сделать Первый мститель: Противостояние 720p, пожалуйста...
    12-Mar-2017 17:08 (after 5 days)
  3. Longevity:
    4 years 6 months
    Posts:
    1576
    Gender:
    Male
    MEME,
    Вы можете заказ фильм в 60 FPS
    350 рублей - BDRip 1080p
    250 рублей - BDRip 720p
    Для обсуждения заказа написать админу в личку (KRYL)
    12-Mar-2017 18:35 (after 1 hour 27 minutes)
  4. Longevity:
    4 years
    Posts:
    3
    Gender:
    Unknown
    Отличный фильм!! спасибо автору! )))
    13-May-2017 17:50 (after 2 months)
  5. Longevity:
    4 years
    Posts:
    38
    Gender:
    Male
    тогда качаю
    08-Aug-2017 23:28 (after 2 months 26 days)
  6. Longevity:
    4 years 6 months
    Posts:
    1576
    Gender:
    Male
    Перезалил файл,добавил и заменил звук на ЛИЦЕНЗИЮ... ! Крутой
    26-Oct-2017 15:18 (after 2 months 17 days)


You cannot post new topics in this forum
You cannot reply to topics in this forum
You cannot edit your posts in this forum
You cannot delete your posts in this forum
You cannot vote in polls in this forum
You cannot attach files in this forum
You cannot download files in this forum