1. Longevity:
    7 years
    Posts:
    2413
    Gender:
    Male
    -DJ Khaled feat. Rihanna & Bryson Tiller - Wild Thoughts (2017) Full HD 1080p | 60 fps- -Информация
    Исполнитель: DJ Khaled feat. Rihanna & Bryson Tiller
    Название: Wild Thoughts
    Год выхода: 2017
    Продолжительность: 00:03:40
    -Описание:
    Жаркий, летний видеоклип Wild Thoughts при участии влиятельного DJ Khaled, сексапильной Rihanna и стильного Bryson Tiller.
    Главный мотив сингла покажется многим слушателям знакомым, особенно для фанатов творчества музыканта Carlos Santana.
    -Файл
    Кодек: MPEG4/ISO/AVC/H.264/[email protected]
    Формат: MKV
    Качество: WEBRip 1080p | 60 fps
    Видео: 1920 x 1080 (1.778) | 59,250 fps 20.0 Мбит/сек
    Аудио: DTS | 1413 Кбит/сек | 48.0 KHz | 2.0 channels

    MediaInfo

    Видео
    Идентификатор : 1
    Формат : AVC
    Формат/Информация : Advanced Video Codec
    Профиль формата : [email protected]
    Параметр CABAC формата : Да
    Параметр ReFrames формата : 3 кадра
    Идентификатор кодека : V_MPEG4/ISO/AVC
    Продолжительность : 3 м. 40 с.
    Вид битрейта : Переменный
    Битрейт : 19,2 Мбит/сек
    Максимальный битрейт : 20,0 Мбит/сек
    Ширина : 1920 пикселей
    Высота : 1080 пикселей
    Соотношение сторон : 16:9
    Режим частоты кадров : Постоянный
    Частота кадров : 59,880 кадров/сек
    Частота кадров в оригинале : 59,940 кадров/сек
    Стандарт вещания : PAL
    Цветовое пространство : YUV
    Субдискретизация насыщенности : 4:2:0
    Битовая глубина : 8 бит
    Тип развёртки : Прогрессивная
    Бит/(Пиксели*Кадры) : 0.155
    Размер потока : 505 Мбайт (91%)
    Заголовок : www.60-fps.org
    Язык : English
    Default : Да
    Forced : Нет
    Основные цвета : BT.709
    Характеристики трансфера : BT.709
    Коэффициенты матрицы : BT.709
    colour_range : Limited
    Аудио
    Идентификатор : 2
    Формат : DTS
    Формат/Информация : Digital Theater Systems
    Режим : 16
    Параметр Endianness формата : Big
    Идентификатор кодека : A_DTS
    Продолжительность : 3 м. 40 с.
    Вид битрейта : Постоянный
    Битрейт : 1413 Кбит/сек
    Каналы : 2 канала
    Расположение каналов : Front: L R
    Частота : 48,0 КГц
    Битовая глубина : 16 бит
    Метод сжатия : С потерями
    Задержка видео : 83 мс.
    Размер потока : 37,1 Мбайт (7%)
    Default : Да
    Forced : Нет
    DURATION : 00:03:40.054000000
    NUMBER_OF_FRAMES : 20630
    NUMBER_OF_BYTES : 38866920
    _STATISTICS_WRITING_APP : mkvmerge v7.6.0 ('Garden of Dreams') 32bit built on Feb 8 2015 12:51:39
    _STATISTICS_WRITING_DATE_UTC : 2017-06-24 15:04:35
    _STATISTICS_TAGS : BPS DURATION NUMBER_OF_FRAMES NUMBER_OF_BYTES

    Release was prepared by 60-fps.org

  2. Longevity:
    4 years 10 months
    Posts:
    24
    Gender:
    Male
    Так себе музыка.. лучше бы вот этот клип запилили в 60fps - DJ Khaled - I'm the One ft. Justin Bieber, Quavo, Chance the Rapper, Lil Wayne - https://www.youtube.com/watch?v=weeI1G46q0o - красивей и веселей Улыбаюсь
    27-Jun-2017 15:32 (after 2 days 21 hour)
  3. Longevity:
    1 year 2 months
    Posts:
    2
    Gender:
    Unknown
    thanks a lot
    10-Aug-2020 17:49 (after 3 years 1 month)


You cannot post new topics in this forum
You cannot reply to topics in this forum
You cannot edit your posts in this forum
You cannot delete your posts in this forum
You cannot vote in polls in this forum
You cannot attach files in this forum
You cannot download files in this forum