LOBODA - Парень (2018) WEBRip 1080p | 60 fps Alice Merton - No Roots (2017) WEBRip 1080p | 60 fps Schiller: Zeitreise Live (2016) BDRip 720p | 60fps Jennifer Lopez - I'm Into You ft. Lil Wayne (2011) Full HD 1080p | 60 fps Snoop Dogg - Wet (2011) Full HD 1080p | 60 fps Katy Perry - Bon Appétit ft. Migos (2017) Full HD 1080p | 60 fps Dan Balan - Chica Bomb (2010) WEBRip 1080p | 60 fps Serebro - В Космосе (2017) Full HD 1080p | 60 fps
  1. Стаж:
    3 года 3 месяца
    Сообщений:
    284
    Пол:
    Мужской
    Дискотека "Авария" - Модный танец АРАМ ЗАМ (2009) HDTVRip 1080p | 60 fps

    Информация о Клипе:
    Исполнители: Дискотека "Авария"
    Название: Модный танец АРАМ ЗАМ
    Год выпуска: 2009 г.
    Жанр: Pop
    Продолжительность: 00:04:16
    Файл:
    Формат видео: MKV
    Качество видео: HDTVRip 1080p | 60 fps
    Видео кодек: H.264
    Аудио кодек: AC3
    Видео: 1920x1080 | 59,940 fps | 15,0 Мбит/сек
    Аудио: AC3 | 2 channels | 48 kHz | 384 Кбит/сек

    Автор Рипа:

    MediaInfo

    Видео
    Идентификатор : 1
    Формат : AVC
    Формат/Информация : Advanced Video Codec
    Профиль формата : High@L4.1
    Параметр CABAC формата : Да
    Параметр ReFrames формата : 4 кадра
    Режим смешивания : Header stripping
    Идентификатор кодека : V_MPEG4/ISO/AVC
    Продолжительность : 4 м. 16 с.
    Битрейт : 15,0 Мбит/сек
    Ширина : 1920 пикселей
    Высота : 1080 пикселей
    Соотношение сторон : 16:9
    Режим частоты кадров : Постоянный
    Частота кадров : 59,940 (59940/1000) кадров/сек
    Цветовое пространство : YUV
    Субдискретизация насыщенности : 4:2:0
    Битовая глубина : 8 бит
    Тип развёртки : Прогрессивная
    Бит/(Пиксели*Кадры) : 0.121
    Размер потока : 451 Мбайт (96%)
    Заголовок : Дискотека "Авария" Avariya - Модный танец АРАМ ЗАМ Aram Sam Sam Zam « R.G 60-FPS Rip By Kamikkadze »
    Библиотека кодирования : x264 core 146 r2538 121396c
    Настройки программы : cabac=1 / ref=4 / deblock=1:-1:1 / analyse=0x3:0x133 / me=umh / subme=9 / psy=1 / psy_rd=1.00:0.15 / mixed_ref=1 / me_range=24 / chroma_me=1 / trellis=2 / 8x8dct=1 / cqm=0 / deadzone=21,11 / fast_pskip=1 / chroma_qp_offset=-3 / threads=6 / lookahead_threads=1 / sliced_threads=0 / nr=0 / decimate=1 / interlaced=0 / bluray_compat=0 / constrained_intra=0 / bframes=6 / b_pyramid=2 / b_adapt=2 / b_bias=0 / direct=1 / weightb=1 / open_gop=0 / weightp=2 / keyint=250 / keyint_min=25 / scenecut=40 / intra_refresh=0 / rc=abr / mbtree=0 / bitrate=14981 / ratetol=1.0 / qcomp=0.60 / qpmin=0 / qpmax=69 / qpstep=4 / ip_ratio=1.40 / pb_ratio=1.30 / aq=1:1.00
    Default : Да
    Forced : Нет
    Аудио
    Идентификатор : 2
    Формат : AC-3
    Формат/Информация : Audio Coding 3
    Расширение режима : CM (complete main)
    Параметр Endianness формата : Big
    Режим смешивания : Header stripping
    Идентификатор кодека : A_AC3
    Продолжительность : 4 м. 16 с.
    Вид битрейта : Постоянный
    Битрейт : 384 Кбит/сек
    Каналы : 2 канала
    Расположение каналов : Front: L R
    Частота : 48,0 КГц
    Частота кадров : 31,250 кадров/сек (1536 spf)
    Метод сжатия : С потерями
    Размер потока : 11,8 Мбайт (2%)
    Default : Да
    Forced : Нет
    Просьба к переливающим на другие сайты, в оформлении указывайте пожалуйста авторство рипа - Kamikkadze

    Релиз подготовлен 60 - fps



    Последний раз редактировалось: kamikkadze (2016-03-31 16:57), всего редактировалось 1 раз
  2. Стаж:
    3 года 6 месяцев
    Сообщений:
    2283
    Пол:
    Мужской
    Информация о Клипе:
    Исполнители: Lady GaGa
    Название: Love Game
    Год выпуска: 2009 г.
    Жанр: Pop
    Продолжительность: 00:04:16
    Злой Злой Злой
    31-Мар-2016 16:01 (спустя 3 часа)
  3. Стаж:
    3 года 3 месяца
    Сообщений:
    284
    Пол:
    Мужской
    5583Информация о Клипе:
    Исполнители: Lady GaGa
    Название: Love Game
    Год выпуска: 2009 г.
    Жанр: Pop
    Продолжительность: 00:04:16
    Злой Злой Злой
    Я сегодня в ударе только так косячу)))
    31-Мар-2016 16:58 (спустя 56 минут)
  4. Стаж:
    3 года 6 месяцев
    Сообщений:
    2283
    Пол:
    Мужской
    Смеюсь
    31-Мар-2016 16:59 (спустя 50 секунд)


Вы не можете начинать темы
Вы не можете отвечать на сообщения
Вы не можете редактировать свои сообщения
Вы не можете удалять свои сообщения
Вы не можете голосовать в опросах
Вы не можете прикреплять файлы к сообщениям
Вы не можете скачивать файлы