[Цитировать]
BOT2

Дикая / Wild
-Год выпуска: 2014
Страна: США
Жанр: драма, биография
Продолжительность: 01:55:36
Перевод: Дубляж
Субтитры: русские (Полные), украинские (Полные), английские (Полные)-Режиссер: Жан-Марк Валле / Jean-Marc Vallee-В ролях: Риз Уизерспун (Cheryl), Лора Дерн (Bobbi), Томас Садоски (Paul), Кин МакРей (Leif), Михил Хаушман (Jonathan), У. Эрл Браун (Frank), Габи Хоффманн (Aimee), Кевин О. Ранкин (Greg), Брайан Ван Холт (Ranger), Клифф Де Янг (Ed), Мо (Jimmy Carter), Уилл Кадди (Josh)-Описание:
В центре сюжета Шерил Стрэйд, раздавленная неудавшимся браком и смертью матери и потерявшая всякую надежду на счастье женщина, отправляется в пешее странствие по территории Pacific Crest Trail - маршруту по наиболее высоким участкам хребта Сьерра-Невада и Каскадных гор. Испытания, выпавшие в этом опасном одиночном путешествии на долю героини, неминуемо исцеляют ее от душевных страданий, но процесс этот будет отнюдь не безболезненным.- -Релиз by: -Качество: BDRip 1080p / 60 FPS
Формат: MKV
Видео кодек: AVC
Аудио кодек:AC3
Видео: AVC, 1920x800 (2.40:1), 13800 kbps, 59,940 fps, 0,150 bpp
Аудио №1: русский / AC3 / 5.1 / 48 kHz / 640 kbps / 16 bit |Дубляж|
Аудио №2: украинский / AC3 / 5.1 / 48 kHz / 640 kbps / 16 bit|Многоголосый, закадровый|
Аудио №3: английский / AC3 / 5.1 / 48 kHz / 640 kbps / 16 bit
Навигация по главам: есть- -

MI

General
Unique ID : 177507677628434020708801818418860493173 (0x858ABC341F516B8A81DEF188359B8975)
Complete name : B:\Дикая 1080p 60fps.mkv
Format : Matroska
Format version : Version 4 / Version 2
File size : 12.7 GiB
Duration : 1h 55mn
Overall bit rate : 15.7 Mbps
Movie name : R.G HD-Films by Tiberiumsun69
Encoded date : UTC 2015-05-26 13:05:30
Writing application : mkvmerge v7.9.0 ('Birds') 64bit
Writing library : libebml v1.3.1 + libmatroska v1.4.2
Attachment : Yes / Yes
Video
ID : 1
Format : AVC
Format/Info : Advanced Video Codec
Format profile : High@L4.1
Format settings, CABAC : Yes
Format settings, ReFrames : 4 frames
Codec ID : V_MPEG4/ISO/AVC
Duration : 1h 55mn
Bit rate : 13.8 Mbps
Width : 1 920 pixels
Height : 800 pixels
Display aspect ratio : 2.40:1
Frame rate : 59.940 fps
Color space : YUV
Chroma subsampling : 4:2:0
Bit depth : 8 bits
Scan type : Progressive
Bits/(Pixel*Frame) : 0.150
Stream size : 10.9 GiB (86%)
Title : R.G HD-Films by Tiberiumsun69
Writing library : x264 core 146 r2538 121396c
Encoding settings : cabac=1 / ref=4 / deblock=1:0:0 / analyse=0x3:0x113 / me=umh / subme=11 / psy=1 / psy_rd=1.00:0.10 / mixed_ref=1 / me_range=32 / chroma_me=1 / trellis=2 / 8x8dct=1 / cqm=0 / deadzone=21,11 / fast_pskip=0 / chroma_qp_offset=-3 / threads=12 / lookahead_threads=1 / sliced_threads=0 / nr=0 / decimate=1 / interlaced=0 / bluray_compat=0 / constrained_intra=0 / bframes=3 / b_pyramid=2 / b_adapt=2 / b_bias=0 / direct=3 / weightb=1 / open_gop=0 / weightp=2 / keyint=600 / keyint_min=59 / scenecut=40 / intra_refresh=0 / rc_lookahead=60 / rc=2pass / mbtree=1 / bitrate=13800 / ratetol=1.0 / qcomp=0.60 / qpmin=0 / qpmax=69 / qpstep=4 / cplxblur=20.0 / qblur=0.5 / vbv_maxrate=50000 / vbv_bufsize=62500 / nal_hrd=none / filler=0 / ip_ratio=1.40 / aq=1:1.00
Language : English
Default : Yes
Forced : No
Audio #1
ID : 2
Format : AC-3
Format/Info : Audio Coding 3
Mode extension : CM (complete main)
Codec ID : A_AC3
Duration : 1h 55mn
Bit rate mode : Constant
Bit rate : 640 Kbps
Channel(s) : 6 channels
Channel positions : Front: L C R, Side: L R, LFE
Sampling rate : 48.0 KHz
Bit depth : 16 bits
Compression mode : Lossy
Stream size : 529 MiB (4%)
Title : Дубляж
Language : Russian
Default : Yes
Forced : No
Audio #2
ID : 3
Format : AC-3
Format/Info : Audio Coding 3
Mode extension : CM (complete main)
Codec ID : A_AC3
Duration : 1h 55mn
Bit rate mode : Constant
Bit rate : 640 Kbps
Channel(s) : 6 channels
Channel positions : Front: L C R, Side: L R, LFE
Sampling rate : 48.0 KHz
Bit depth : 16 bits
Compression mode : Lossy
Stream size : 529 MiB (4%)
Title : Многоголосый закадровый
Language : Ukrainian
Default : No
Forced : No
Audio #3
ID : 4
Format : AC-3
Format/Info : Audio Coding 3
Mode extension : CM (complete main)
Codec ID : A_AC3
Duration : 1h 55mn
Bit rate mode : Constant
Bit rate : 640 Kbps
Channel(s) : 6 channels
Channel positions : Front: L C R, Side: L R, LFE
Sampling rate : 48.0 KHz
Bit depth : 16 bits
Compression mode : Lossy
Stream size : 529 MiB (4%)
Title : Оригинал
Language : English
Default : No
Forced : No
Text #1
ID : 5
Format : UTF-8
Codec ID : S_TEXT/UTF8
Codec ID/Info : UTF-8 Plain Text
Title : Полные
Language : Russian
Default : No
Forced : No
Text #2
ID : 6
Format : UTF-8
Codec ID : S_TEXT/UTF8
Codec ID/Info : UTF-8 Plain Text
Title : Полные
Language : Ukrainian
Default : No
Forced : No
Text #3
ID : 7
Format : UTF-8
Codec ID : S_TEXT/UTF8
Codec ID/Info : UTF-8 Plain Text
Title : Полные
Language : English
Default : No
Forced : No
Menu
00:00:00.000 : en:Chapter 01
00:02:56.885 : en:Chapter 02
00:05:48.139 : en:Chapter 03
00:09:36.576 : en:Chapter 04
00:12:02.012 : en:Chapter 05
00:14:56.687 : en:Chapter 06
00:19:38.177 : en:Chapter 07
00:22:42.027 : en:Chapter 08
00:26:09.234 : en:Chapter 09
00:31:03.987 : en:Chapter 10
00:33:42.645 : en:Chapter 11
00:35:58.865 : en:Chapter 12
00:40:35.349 : en:Chapter 13
00:44:04.975 : en:Chapter 14
00:47:38.564 : en:Chapter 15
00:51:51.691 : en:Chapter 16
00:54:42.904 : en:Chapter 17
00:58:57.617 : en:Chapter 18
01:02:13.104 : en:Chapter 19
01:04:54.181 : en:Chapter 20
01:07:52.401 : en:Chapter 21
01:11:53.183 : en:Chapter 22
01:15:15.135 : en:Chapter 23
01:18:05.722 : en:Chapter 24
01:20:57.769 : en:Chapter 25
01:23:13.279 : en:Chapter 26
01:26:39.319 : en:Chapter 27
01:29:24.400 : en:Chapter 28
01:32:08.856 : en:Chapter 29
01:34:40.883 : en:Chapter 30
01:36:37.249 : en:Chapter 31
01:38:04.587 : en:Chapter 32
01:41:03.182 : en:Chapter 33
01:43:11.059 : en:Chapter 34
01:47:12.342 : en:Chapter 35
01:50:33.001 : en:Chapter 36

[Цитировать]
Tranch

Спасибо за один из лучших фильмов прошлого года! Теперь жду каждый проект от режиссёра Далласского клуба покупателей.
 
Показать сообщения:    

Текущее время: 10-Дек 19:34

Часовой пояс: UTC + 3


Вы не можете начинать темы
Вы не можете отвечать на сообщения
Вы не можете редактировать свои сообщения
Вы не можете удалять свои сообщения
Вы не можете голосовать в опросах
Вы не можете прикреплять файлы к сообщениям
Вы не можете скачивать файлы