Танго и Кэш / Tango & Cash (1989) BDRemux 1080p | 60 fps Агент Ева / Ava (2020) BDRip 1080p | 60 fps Ультрафиолет / Ultraviolet (2006) BDRip 1080p | 60 fps Властелин колец: Трилогия / The Lord of the Rings: Trilogy (2001-2003) BDRip-AVC | Extended Cut | 60 fps Вивариум / Vivarium (2019) BDRip 720p | 60 fps Девушка-невидимка / Shadow Girl (2019) BDRip 720p | 60 fps Не входи / The Owners(2020) BDRip 720p | 60 fps Думай как собака / Think Like a Dog (2020) BDRip 720p | 60 fps
  1. Longevity:
    6 years 7 months
    Posts:
    2414
    Gender:
    Male
    «Kevin Spacey as you've never seen him before»- Информация
    Название: Девять жизней
    Оригинальное название: Nine Lives
    Год выхода: 2016
    Жанр: Фэнтези, комедия, семейный
    Режиссер: Барри Зонненфельд
    Сценарий: Гвин Лури, Мэтт Аллен, Калеб Уилсон
    Продюсер: Лиза Эллзи, Энри Денебур, Тьерри Гилмор
    В ролях: Кевин Спейси, Дженнифер Гарнер, Робби Амелл, Шерил Хайнс, Марк Консуэлос, Малина Вайсман, Кристофер Уокен, Талита Бейтман, Тедди Сирс, Джей Пэттерсон
    --Сюжет:
    Том Бренд — миллиардер-трудоголик с чудинкой. Он с головой погружен в работу и немного выпал из семейной жизни — даже подарок дочери он покупает в последний момент. Ребекка мечтает о настоящем коте, и как бы Том ни презирал животных, он отправляется в зоомагазин, где выбирает самого роскошного кота по кличке Мистер Пушистые Штаны. В спешке на праздник дочери Том попадает в аварию, а очнувшись, обнаруживает себя в теле этого самого кота. Пока Том-человек отсыпается в больнице, Том-Пушистые Штаны вынужден на собственной шкуре испытать все прелести кошачьей жизни и вернуть любовь семьи, чтобы не остаться навсегда в роли питомца. Благо, жена и дочь принимают кота как родного. Но как заставить их разглядеть в Мистере Пушистые Штаны раскаявшегося отца семейства?- Страна: Франция, Китай
    Продолжительность: 01:26:50

    Файл
    Кодек: MPEG4/ISO/AVC/H.264
    Формат: MKV
    Качество: BDRip 720p | 60 fps
    Видео: 1280 x 690 (1.855) | 59.940 fps | 10.0 Мбит/сек
    Аудио 1: AC3 | 5.1 | 48 kHz | 384 kbps | 16 bit | Дубляж - iTunes |
    Аудио 2: AC3 | 5.1 | 48 kHz | 640 kbps | 16 bit | ENG |
    Субтитры: Eng

    MedifInfo

    Видео
    Идентификатор : 1
    Формат : AVC
    Формат/Информация : Advanced Video Codec
    Профиль формата : [email protected]
    Параметр CABAC формата : Да
    Параметр ReFrames формата : 3 кадра
    Идентификатор кодека : V_MPEG4/ISO/AVC
    Продолжительность : 1 ч. 26 м.
    Вид битрейта : Переменный
    Битрейт : 9664 Кбит/сек
    Максимальный битрейт : 10000 Кбит/сек
    Ширина : 1280 пикселей
    Высота : 690 пикселей
    Соотношение сторон : 1,85:1
    Режим частоты кадров : Постоянный
    Частота кадров : 59,880 кадров/сек
    Частота кадров в оригинале : 59,940 кадров/сек
    Стандарт вещания : PAL
    Цветовое пространство : YUV
    Субдискретизация насыщенности : 4:2:0
    Битовая глубина : 8 бит
    Тип развёртки : Прогрессивная
    Бит/(Пиксели*Кадры) : 0.183
    Размер потока : 5,86 Гбайт (89%)
    Заголовок : www.60-fps.org
    Язык : English
    Default : Да
    Forced : Нет
    Основные цвета : BT.709
    Характеристики трансфера : BT.709
    Коэффициенты матрицы : BT.709
    colour_range : Limited
    Аудио #1
    Идентификатор : 2
    Формат : AC-3
    Формат/Информация : Audio Coding 3
    Расширение режима : CM (complete main)
    Параметр Endianness формата : Big
    Идентификатор кодека : A_AC3
    Продолжительность : 1 ч. 26 м.
    Вид битрейта : Постоянный
    Битрейт : 384 Кбит/сек
    Каналы : 6 каналов
    Расположение каналов : Front: L C R, Side: L R, LFE
    Частота : 48,0 КГц
    Битовая глубина : 16 бит
    Метод сжатия : С потерями
    Размер потока : 239 Мбайт (4%)
    Заголовок : Дубляж - iTunes
    Язык : Russian
    Default : Да
    Forced : Нет
    Аудио #2
    Идентификатор : 3
    Формат : AC-3
    Формат/Информация : Audio Coding 3
    Расширение режима : CM (complete main)
    Параметр Endianness формата : Big
    Идентификатор кодека : A_AC3
    Продолжительность : 1 ч. 26 м.
    Вид битрейта : Постоянный
    Битрейт : 640 Кбит/сек
    Каналы : 6 каналов
    Расположение каналов : Front: L C R, Side: L R, LFE
    Частота : 48,0 КГц
    Битовая глубина : 16 бит
    Метод сжатия : С потерями
    Размер потока : 398 Мбайт (6%)
    Заголовок : eng
    Default : Нет
    Forced : Нет
    Текст #1
    Идентификатор : 4
    Формат : UTF-8
    Идентификатор кодека : S_TEXT/UTF8
    Идентификатор кодека/Информация : UTF-8 Plain Text
    Заголовок : Full
    Язык : English
    Default : Нет
    Forced : Нет
    Текст #2
    Идентификатор : 5
    Формат : UTF-8
    Идентификатор кодека : S_TEXT/UTF8
    Идентификатор кодека/Информация : UTF-8 Plain Text
    Заголовок : SDH
    Язык : English
    Default : Нет
    Forced : Нет
    Меню
    00:00:00.000 : en:Chapter 1
    00:09:57.471 : en:Chapter 2
    00:20:21.011 : en:Chapter 3
    00:30:52.851 : en:Chapter 4
    00:39:22.276 : en:Chapter 5
    00:49:29.299 : en:Chapter 6
    01:00:11.774 : en:Chapter 7
    01:09:54.648 : en:Chapter 8
    01:19:27.888 : en:Chapter 9

    Release was prepared by 60-fps.org

  2. Longevity:
    4 years 7 months
    Posts:
    9
    Gender:
    Unknown
    Уважаемый Kryl, есть ли смысл ожидать "Девять жизней" в 1080р ?
    11-Nov-2016 16:17 (after 19 hours)
  3. Longevity:
    6 years 7 months
    Posts:
    2414
    Gender:
    Male
    6816Уважаемый Kryl, есть ли смысл ожидать "Девять жизней" в 1080р ?
    К сожалению нет .
    Теперь будет только один формат из двух 720p или 1080p
    к примеру если фильм сделан в 1080p то в 720p уже делать не буду , ну и наоборот ...
    11-Nov-2016 16:22 (after 4 minutes)
  4. Longevity:
    4 years 8 months
    Posts:
    1586
    Gender:
    Male
    Kryl, плохо... Плачу нужно тогда обновлять медиаплеер ! Сомневаюсь не все фильмы тянет в 1080р
    11-Nov-2016 16:52 (after 30 minutes)
  5. bot

    Longevity:
    6 years 7 months
    Posts:
    410
    Gender:
    Unknown
    Топик был перенесен из форума Новинки Кино 60 FPS в форум Зарубежные фильмы 60 FPS
    Kryl
    19-Nov-2016 19:39 (after 8 days)


You cannot post new topics in this forum
You cannot reply to topics in this forum
You cannot edit your posts in this forum
You cannot delete your posts in this forum
You cannot vote in polls in this forum
You cannot attach files in this forum
You cannot download files in this forum