Суперсемейка 2 / Incredibles 2 (2018) BDRip 1080p | 60 fps Тайна Коко / Coco (2017) BDRip 1080p | 60 fps Монстры на каникулах 3: Море зовёт / Hotel Transylvania 3: Summer Vacation (2018) BDRip 720p | 60 fps Монстры на каникулах 3: Море зовёт / Hotel Transylvania 3: Summer Vacation (2018) BDRip 1080p | 60 fps Моана / Moana (2016) BDRip 720p | 60 fps Тайная жизнь домашних животных / The Secret Life of Pets (2016) BDRip 1080p | 60 fps Город героев / Big Hero 6 (2014) BDRip 1080p | 60 FPS ВАЛЛ·И / WALL-E (2008) BDRip-AVC | 60 fps
  1. Longevity:
    4 years 6 months
    Posts:
    2411
    Gender:
    Male
    Девять / 9 (2009) BDRip 720p | 50 FPS-- Информация о фильме
    Название: Девять
    Оригинальное название: 9
    Год выхода: 2009
    Жанр: мультфильм, фантастика, фэнтези, приключения
    Режиссер: Шэйн Эккер
    В ролях:
    Кристофер Пламмер, Мартин Ландау, Джон Си Райли, Криспин Гловер, Дженнифер Коннелли, Фред Татаскьор, Элайджа Вуд, Алан Оппенхаймер, Том Кэйн, Хелен Уилсон
    Роли дублировали:
    Геннадий Хазанов, Валерий Золотухин, Алексей Долматов (ГУФ), Александр Пушной, Тутта Ларсен, Владимир Турчинский, Константин Хабенский, Алексей Колган, Юрий Деркач
    --О фильме:
    Человек создал искусственный разум, но не смог дать механизму душу. И однажды его творение подняло руку на своего создателя…
    В страшной войне человечество было уничтожено механическими монстрами. Перед тем как погибнуть, профессор, придумавший умные машины, сшил девять тряпичных кукол, вложив в них человеческие души. Девять Героев. Девять Характеров. Только вместе, помогая друг другу, им суждено выжить. Выжить, чтобы выполнить свою миссию… возродить на Земле жизнь.
    -- --Страна: США, Германия
    Студия: Focus Features
    Продолжительность: 01:19:14
    Перевод: Дублированный

    Файл
    Формат: MKV
    Кодек: MPEG4/ISO/AVC H.264
    Качество: BDRip 720p
    Видео: AVC at 2605 Кбит/сек/1280 x 720 (1.778) at 50.000 fps
    Звук: AC-3 at 640 Кбит/сек/6 каналов, 48,0 КГц
    --

    MI

    Видео
    Идентификатор : 2
    Формат : AVC
    Формат/Информация : Advanced Video Codec
    Профиль формата : High@L4.1
    Параметр CABAC формата : Да
    Параметр ReFrames формата : 3 кадра
    Идентификатор кодека : V_MPEG4/ISO/AVC
    Продолжительность : 1 ч. 19 м.
    Битрейт : 2605 Кбит/сек
    Ширина : 1280 пикселей
    Высота : 720 пикселей
    Соотношение сторон : 16:9
    Режим частоты кадров : Переменный
    Частота кадров :
    50,000 кадров/сек
    Цветовое пространство : YUV
    Субдискретизация насыщенности : 4:2:0
    Битовая глубина : 8 бит
    Тип развёртки : Прогрессивная
    Бит/(Пиксели*Кадры) : 0.057
    Размер потока : 1,44 Гбайт (79%)
    Библиотека кодирования : x264 core 116 r2019M 9cc407d
    Язык : English
    Default : Да
    Forced : Нет

    Аудио
    Идентификатор : 1
    Формат : AC-3
    Формат/Информация : Audio Coding 3
    Расширение режима : CM (complete main)
    Идентификатор кодека : A_AC3
    Продолжительность : 1 ч. 19 м.
    Вид битрейта : Постоянный
    Битрейт : 640 Кбит/сек
    Каналы : 6 каналов
    Расположение каналов : Front: L C R, Side: L R, LFE
    Частота : 48,0 КГц
    Битовая глубина : 16 бит
    Метод сжатия : С потерями
    Размер потока : 363 Мбайт (19%)
    Язык : Russian
    Default : Да
    Forced : Нет


You cannot post new topics in this forum
You cannot reply to topics in this forum
You cannot edit your posts in this forum
You cannot delete your posts in this forum
You cannot vote in polls in this forum
You cannot attach files in this forum
You cannot download files in this forum