[Цитировать]
Kryl

«Дети шпионов» — серия приключенческо-комедийных фильмов, придуманная, поставленная и спродюсированная режиссёром Робертом Родригесом.
В центре сюжета — дети, которые узнают, что их родители секретные агенты, и сами становятся ими, работая в организации «OSS».

Дети шпионов / Spy Kids

«Real Spies... only smaller»- Информация о фильме
Название: Дети шпионов
Оригинальное название: Spy Kids
Год выхода: 2001
Жанр: Фантастика, боевик, комедия, приключения, семейный
Режиссер: Роберт Родригес
Сценарий: Роберт Родригес
Продюсер: Элизабет Авеллан, Роберт Родригес, Кэри Грэнат
В ролях: Антонио Бандерас, Карла Гуджино, Элан Камминг,Алекса Вега, Дэрил Сабара, Тони Шэлхоуб, Роберт Патрик
--О фильме:
Два самых крутых шпиона в мире: Грегорио Кортес и Ингрид, имели одно и то же секретное задание — уничтожить друг друга. Но личная встреча не принесла им ничего хорошего: они поженились и завязали со своим ремеслом… Через несколько лет исчезновение семерых спецагентов вынуждает их снова вернуться в игру. Причиной послужило то, что их бывшие коллеги, самые крутые профессионалы, начали исчезать один за другим.
Кортесы вновь нужны агентству, которое хочет, чтобы они раскрыли секреты некоего Пальчика, формирующего армию из детей-роботов. Участь исчезновения постигает и супругов Кортесов, их похищает коварный злодей. Теперь судьба пленников зависит от того, смогут ли их дети правильно распорядиться всеми новейшими сверхсекретными шпионскими штучками из арсенала легендарных родителей.
- - Страна: США
Продолжительность: 01:30:50
-- Файл
Кодек: MPEG4/ISO/AVC H.264
Формат: MKV
Качество: BDRip-AVC 60fps
Видео: 1024x552 (1.855) | 59.940 fps | ~5.1 Мбит/сек
Аудио: AC3 | 5.1 | 48 kHz | 448 kbps | 16 bit | Дубляж |
Субтитры: Русские (Полные), английские (Полные)

MedifInfo

Video
ID : 1
Format : AVC
Format/Info : Advanced Video Codec
Format profile : High@L4.1
Format settings, CABAC : Yes
Format settings, ReFrames : 4 frames
Codec ID : V_MPEG4/ISO/AVC
Duration : 1h 30mn
Bit rate : 5 100 Kbps
Width : 1 024 pixels
Height : 552 pixels
Display aspect ratio : 1.855
Frame rate : 59.940 fps
Color space : YUV
Chroma subsampling : 4:2:0
Bit depth : 8 bits
Scan type : Progressive
Bits/(Pixel*Frame) : 0.151
Stream size : 3.17 GiB (90%)
Writing library : x264 core 146 r2538 121396c
Encoding settings : cabac=1 / ref=3 / deblock=1:0:0 / analyse=0x3:0x113 / me=umh / subme=9 / psy=1 / psy_rd=1.00:0.10 / mixed_ref=1 / me_range=32 / chroma_me=1 / trellis=2 / 8x8dct=1 / cqm=0 / deadzone=21,11 / fast_pskip=0 / chroma_qp_offset=-3 / threads=12 / lookahead_threads=3 / sliced_threads=0 / nr=0 / decimate=1 / interlaced=0 / bluray_compat=0 / constrained_intra=0 / bframes=16 / b_pyramid=2 / b_adapt=2 / b_bias=0 / direct=3 / weightb=1 / open_gop=0 / weightp=2 / keyint=600 / keyint_min=59 / scenecut=40 / intra_refresh=0 / rc_lookahead=40 / rc=2pass / mbtree=0 / bitrate=5100 / ratetol=1.0 / qcomp=0.60 / qpmin=0 / qpmax=69 / qpstep=4 / cplxblur=20.0 / qblur=0.5 / vbv_maxrate=50000 / vbv_bufsize=62500 / nal_hrd=none / filler=0 / ip_ratio=1.40 / pb_ratio=1.30 / aq=1:1.00
Language : English
Default : Yes
Forced : No
Audio
ID : 2
Format : AC-3
Format/Info : Audio Coding 3
Mode extension : CM (complete main)
Codec ID : A_AC3
Duration : 1h 30mn
Bit rate mode : Constant
Bit rate : 448 Kbps
Channel(s) : 6 channels
Channel positions : Front: L C R, Side: L R, LFE
Sampling rate : 48.0 KHz
Bit depth : 16 bits
Compression mode : Lossy
Stream size : 291 MiB (8%)
Title : Дубляж
Language : Russian
Default : Yes
Forced : No
Text #1
ID : 3
Format : UTF-8
Codec ID : S_TEXT/UTF8
Codec ID/Info : UTF-8 Plain Text
Title : Полные
Language : Russian
Default : No
Forced : No
Text #2
ID : 4
Format : UTF-8
Codec ID : S_TEXT/UTF8
Codec ID/Info : UTF-8 Plain Text
Title : Полные
Language : English
Default : No
Forced : No
Menu
00:00:00.000 : en:
00:09:03.501 : en:
00:10:09.108 : en:
00:11:26.143 : en:
00:13:14.794 : en:
00:16:56.306 : en:
00:20:29.311 : en:
00:24:33.680 : en:
00:27:28.480 : en:
00:29:42.363 : en:
00:34:07.920 : en:
00:36:10.293 : en:
00:38:58.419 : en:
00:42:53.112 : en:
00:45:42.114 : en:
00:49:53.156 : en:
00:55:56.269 : en:
01:02:53.978 : en:
01:06:24.563 : en:
01:12:14.079 : en:
01:16:05.602 : en:
01:19:18.378 : en:
01:24:53.088 : en:
01:30:50.236 : en:

Дети шпионов 2: Остров несбывшихся надежд / Spy Kids 2: Island of Lost Dreams

«Больше тайн. Больше приключений. Больше шпионов»- Информация о фильме
Название: Дети шпионов 2: Остров несбывшихся надежд
Оригинальное название: Spy Kids 2: Island of Lost Dreams
Год выхода: 2002
Жанр: Фантастика, боевик, комедия, приключения, семейный
Режиссер: Роберт Родригес
Сценарий: Роберт Родригес
Продюсер: Роберт Родригес, Элизабет Авеллан, Билл Скотт
В ролях: Антонио Бандерас, Карла Гуджино, Алекса Вега, Дэрил Сабара, Стив Бушеми, Майк Джадж, Дэнни Трехо, Чич Марин, Мэтью О’Лири, Эмили Осмент и др.
--О фильме:
Джуни и его старшая сестра Кармен еще предыдущими своими приключениями доказали, что они не только могут помогать своим родителям-шпионам, но и могут самостоятельно справляться с делами, достойными настоящих шпионов. На этот раз не их родителям, Грегорио и Ингрид, а самим Джуни и Кармен предстоит выполнить новое задание.
Они отправляются на таинственный остров, где один ученый-изобретатель создает сверхъестественные существа. Джуни и Кармен должны остановить безумного злодея, однако в этом задании у них есть конкуренты — брат и сестра Гари и Герти. У этих двух конкурирующих шпионских дуэтов одна цель — найти и уничтожить устройство, которое может нанести непоправимый вред всему миру.
Это задание оказывается слишком сложным для юных шпионов, которым на помощь приходят их родители и дедушка с бабушкой…
- - Страна: США
Продолжительность: 01:40:17
-- Файл
Кодек: MPEG4/ISO/AVC H.264
Формат: MKV
Качество: BDRip-AVC 60fps
Видео: AVC, 1024x576 (16:9) | 59.940 fps | ~5.1 Мбит/сек
Аудио: AC3 | 5.1 | 48 kHz | 448 kbps | 16 bit | Дубляж |
Субтитры: Русские (Полные), английские (Полные)

MedifInfo

Video
ID : 1
Format : AVC
Format/Info : Advanced Video Codec
Format profile : High@L4.1
Format settings, CABAC : Yes
Format settings, ReFrames : 4 frames
Codec ID : V_MPEG4/ISO/AVC
Duration : 1h 40mn
Bit rate : 5 100 Kbps
Width : 1 024 pixels
Height : 576 pixels
Display aspect ratio : 16:9
Frame rate : 59.940 fps
Color space : YUV
Chroma subsampling : 4:2:0
Bit depth : 8 bits
Scan type : Progressive
Bits/(Pixel*Frame) : 0.144
Stream size : 3.50 GiB (90%)
Writing library : x264 core 146 r2538 121396c
Encoding settings : cabac=1 / ref=3 / deblock=1:0:0 / analyse=0x3:0x113 / me=umh / subme=9 / psy=1 / psy_rd=1.00:0.10 / mixed_ref=1 / me_range=32 / chroma_me=1 / trellis=2 / 8x8dct=1 / cqm=0 / deadzone=21,11 / fast_pskip=0 / chroma_qp_offset=-3 / threads=12 / lookahead_threads=3 / sliced_threads=0 / nr=0 / decimate=1 / interlaced=0 / bluray_compat=0 / constrained_intra=0 / bframes=16 / b_pyramid=2 / b_adapt=2 / b_bias=0 / direct=3 / weightb=1 / open_gop=0 / weightp=2 / keyint=600 / keyint_min=59 / scenecut=40 / intra_refresh=0 / rc_lookahead=40 / rc=2pass / mbtree=0 / bitrate=5100 / ratetol=1.0 / qcomp=0.60 / qpmin=0 / qpmax=69 / qpstep=4 / cplxblur=20.0 / qblur=0.5 / vbv_maxrate=50000 / vbv_bufsize=62500 / nal_hrd=none / filler=0 / ip_ratio=1.40 / pb_ratio=1.30 / aq=1:1.00
Language : English
Default : Yes
Forced : No
Audio
ID : 2
Format : AC-3
Format/Info : Audio Coding 3
Mode extension : CM (complete main)
Codec ID : A_AC3
Duration : 1h 40mn
Bit rate mode : Constant
Bit rate : 448 Kbps
Channel(s) : 6 channels
Channel positions : Front: L C R, Side: L R, LFE
Sampling rate : 48.0 KHz
Bit depth : 16 bits
Compression mode : Lossy
Stream size : 321 MiB (8%)
Title : Дубляж
Language : Russian
Default : Yes
Forced : No
Text #1
ID : 3
Format : UTF-8
Codec ID : S_TEXT/UTF8
Codec ID/Info : UTF-8 Plain Text
Title : Полные
Language : Russian
Default : No
Forced : No
Text #2
ID : 4
Format : UTF-8
Codec ID : S_TEXT/UTF8
Codec ID/Info : UTF-8 Plain Text
Title : Полные
Language : English
Default : No
Forced : No
Menu
00:00:00.000 : en:00:00:00.000
00:07:57.477 : en:00:07:57.477
00:10:37.595 : en:00:10:37.595
00:15:12.578 : en:00:15:12.578
00:22:19.380 : en:00:22:19.380
00:29:22.719 : en:00:29:22.719
00:33:28.381 : en:00:33:28.381
00:39:18.565 : en:00:39:18.565
00:42:51.903 : en:00:42:51.903
00:48:35.162 : en:00:48:35.162
00:56:57.664 : en:00:56:57.664
01:02:21.237 : en:01:02:21.237
01:10:28.307 : en:01:10:28.307
01:13:52.303 : en:01:13:52.303
01:15:30.025 : en:01:15:30.025
01:21:06.820 : en:01:21:06.820
01:28:53.495 : en:01:28:53.495
01:32:59.657 : en:01:32:59.657
01:33:57.632 : en:01:33:57.632

Дети шпионов 3: Игра окончена / Spy Kids 3-D: Game Over

«Третья миссия. Третье измерение»- Информация о фильме
Название: Дети шпионов 3: Игра окончена
Оригинальное название: Spy Kids 3-D: Game Over
Год выхода: 2003
Жанр: Фантастика, боевик, комедия, приключения, семейный
Режиссер: Роберт Родригес
Сценарий: Роберт Родригес
Продюсер: Роберт Родригес, Элизабет Авеллан, Билл Скотт
В ролях: Антонио Бандерас, Карла Гуджино, Алекса Вега, Дэрил Сабара, Рикардо Монтальбан, Холланд Тейлор, Сильвестр Сталлоне, Майк Джадж, Сальма Хайек, Мэтью О’Лири и др.
--О фильме:
Шпионы становятся старше, но и враги — все сильнее и изощреннее. Теперь им предстоит вступить в схватку с самим Сильвестром Сталлоне, чтобы спасти не только свои жизни, но и целый мир…
Несовершеннолетние агенты Джуни и Кармен Кортез отправляются на выполнение нового задания. На этот раз их ждет путешествие по виртуальному миру 3-D видеоигры, разработанной для того, чтобы существа, населяющие ее явились в реальный мир.
Дочь шпионов Кармен попалась в сети компьютерной игры, созданной зловещим Мастером Игрушек. Теперь ее брат должен спасти сестру, а заодно и весь мир. И помогать ему в этом будут его родители!
- - Страна: США
Продолжительность: 01:22:37
-- Файл
Кодек: MPEG4/ISO/AVC H.264
Формат: MKV
Качество: BDRip-AVC 60fps
Видео: AVC, 1024x576 (16:9) | 59.940 fps | ~5.3 Мбит/сек
Аудио: AC3 | 5.1 | 48 kHz | 448 kbps | 16 bit | Дубляж |
Субтитры: Русские (Полные), английские (Полные)

MedifInfo

Video
ID : 1
Format : AVC
Format/Info : Advanced Video Codec
Format profile : High@L4.1
Format settings, CABAC : Yes
Format settings, ReFrames : 4 frames
Codec ID : V_MPEG4/ISO/AVC
Duration : 1h 22mn
Bit rate : 5 300 Kbps
Width : 1 024 pixels
Height : 576 pixels
Display aspect ratio : 16:9
Frame rate : 59.940 fps
Color space : YUV
Chroma subsampling : 4:2:0
Bit depth : 8 bits
Scan type : Progressive
Bits/(Pixel*Frame) : 0.150
Stream size : 2.99 GiB (90%)
Writing library : x264 core 146 r2538 121396c
Encoding settings : cabac=1 / ref=3 / deblock=1:0:0 / analyse=0x3:0x113 / me=umh / subme=9 / psy=1 / psy_rd=1.00:0.10 / mixed_ref=1 / me_range=32 / chroma_me=1 / trellis=2 / 8x8dct=1 / cqm=0 / deadzone=21,11 / fast_pskip=0 / chroma_qp_offset=-3 / threads=12 / lookahead_threads=3 / sliced_threads=0 / nr=0 / decimate=1 / interlaced=0 / bluray_compat=0 / constrained_intra=0 / bframes=16 / b_pyramid=2 / b_adapt=2 / b_bias=0 / direct=3 / weightb=1 / open_gop=0 / weightp=2 / keyint=600 / keyint_min=59 / scenecut=40 / intra_refresh=0 / rc_lookahead=40 / rc=2pass / mbtree=0 / bitrate=5300 / ratetol=1.0 / qcomp=0.60 / qpmin=0 / qpmax=69 / qpstep=4 / cplxblur=20.0 / qblur=0.5 / vbv_maxrate=50000 / vbv_bufsize=62500 / nal_hrd=none / filler=0 / ip_ratio=1.40 / pb_ratio=1.30 / aq=1:1.00
Language : English
Default : Yes
Forced : No
Audio
ID : 2
Format : AC-3
Format/Info : Audio Coding 3
Mode extension : CM (complete main)
Codec ID : A_AC3
Duration : 1h 22mn
Bit rate mode : Constant
Bit rate : 448 Kbps
Channel(s) : 6 channels
Channel positions : Front: L C R, Side: L R, LFE
Sampling rate : 48.0 KHz
Bit depth : 16 bits
Compression mode : Lossy
Stream size : 265 MiB (8%)
Title : Дубляж
Language : Russian
Default : Yes
Forced : No
Text #1
ID : 3
Format : UTF-8
Codec ID : S_TEXT/UTF8
Codec ID/Info : UTF-8 Plain Text
Title : Полные
Language : Russian
Default : No
Forced : No
Text #2
ID : 4
Format : UTF-8
Codec ID : S_TEXT/UTF8
Codec ID/Info : UTF-8 Plain Text
Title : Полные
Language : English
Default : No
Forced : No
Menu
00:00:00.000 : en:00:00:00.000
00:00:52.844 : en:00:00:52.844
00:02:39.159 : en:00:02:39.159
00:03:51.606 : en:00:03:51.606
00:06:44.404 : en:00:06:44.404
00:09:07.130 : en:00:09:07.130
00:10:25.124 : en:00:10:25.124
00:12:29.832 : en:00:12:29.832
00:13:36.482 : en:00:13:36.482
00:15:27.593 : en:00:15:27.593
00:19:26.624 : en:00:19:26.624
00:25:21.437 : en:00:25:21.437
00:27:03.413 : en:00:27:03.413
00:28:32.252 : en:00:28:32.252
00:37:59.402 : en:00:37:59.402
00:41:09.133 : en:00:41:09.133
00:43:07.418 : en:00:43:07.418
00:49:02.231 : en:00:49:02.231
00:51:36.385 : en:00:51:36.385
00:53:30.749 : en:00:53:30.749
00:55:56.478 : en:00:55:56.478
00:58:55.323 : en:00:58:55.323
01:03:41.401 : en:01:03:41.401
01:05:35.140 : en:01:05:35.140
01:06:59.224 : en:01:06:59.224
01:09:26.871 : en:01:09:26.871
01:11:23.946 : en:01:11:23.946
01:14:42.895 : en:01:14:42.895
01:15:25.271 : en:01:15:25.271
[60-fps.org].t994.torrent
Торрент: Зарегистрирован [ 2015-08-22 22:41 ] · 5B0016D5695CDBA6D18BD87C67BE2132A9E4AF18

Скачать .torrent

Скачать

55 KB

Статус: проверено
Скачан: 17 раз
Поблагодарили:
Размер: 10,73 GB
 
Похожие Темы
 
Показать сообщения:    

Текущее время: 25-Фев 18:52

Часовой пояс: UTC + 3


Вы не можете начинать темы
Вы не можете отвечать на сообщения
Вы не можете редактировать свои сообщения
Вы не можете удалять свои сообщения
Вы не можете голосовать в опросах
Вы не можете прикреплять файлы к сообщениям
Вы можете скачивать файлы