Depeche Mode - One Night In Paris. The Exciter Tour (2001) DVDRip | 60 fps- Информация
Название: Depeche Mode - One Night In Paris. The Exciter Tour
Оригинальное название: Depeche Mode - One Night In Paris. The Exciter Tour
Год выхода: 2001
Жанр: музыка, концерт
Продолжительность: 01:57:45

О концерте:
Живой концерт Depeche Mode в Париже, в 2001 году, в рамках тура Exciter. Музыкальные критики отметили достаточно необычное для группы экспериментальное звучание композиций. По сравнению с другими альбомами коллектива, в Exciter использовано больше клавишных инструментов, которые придали альбому минималистический, цифровой звук.- Файл
Кодек: MPEG4/ISO/AVC H.264
Формат: MKV
Качество: DVDRip | 60 fps
Видео: 720x480 | 60.000 fps | 3.0 Мбит/сек
Аудио: AC3 | 5.1 | 48 kHz | 448 kbps | 16 bit ]

Треклист


01. Dream On (Guitar Intro)
02. The Dead Of Night
03. The Sweetest Condition
04. Halo
05. Walking In My Shoes
06. Dream On
07. When The Body Speaks
08. Waiting For The Night
09. It Doesn't Master Two
10. Breathe
11. Freelove
12. Enjoy The Silence
13. I Feel You
14. In Your Room
15. It's No Good
16. Personal Jesus
17. Home
18. Condemnation
19. Black Celebration
20. Never Let Me Down Again

MedifInfo

Video
ID : 1
Format : AVC
Format/Info : Advanced Video Codec
Format profile : High@L3.1
Format settings, CABAC : Yes
Format settings, ReFrames : 8 frames
Codec ID : V_MPEG4/ISO/AVC
Duration : 1h 57mn
Bit rate : 3 000 Kbps
Width : 720 pixels
Height : 480 pixels
Display aspect ratio : 3:2
Frame rate mode : Constant
Frame rate : 60.000 fps
Original frame rate : 59.940 fps
Standard : NTSC
Color space : YUV
Chroma subsampling : 4:2:0
Bit depth : 8 bits
Scan type : Progressive
Bits/(Pixel*Frame) : 0.145
Stream size : 2.41 GiB (85%)
Writing library : x264 core 146 r2538 121396c
Encoding settings : cabac=1 / ref=8 / deblock=1:-1:-1 / analyse=0x3:0x133 / me=umh / subme=9 / psy=1 / psy_rd=1.00:0.15 / mixed_ref=1 / me_range=16 / chroma_me=1 / trellis=2 / 8x8dct=1 / cqm=0 / deadzone=21,11 / fast_pskip=1 / chroma_qp_offset=-3 / threads=6 / lookahead_threads=1 / sliced_threads=0 / nr=0 / decimate=1 / interlaced=0 / bluray_compat=0 / constrained_intra=0 / bframes=3 / b_pyramid=2 / b_adapt=2 / b_bias=0 / direct=3 / weightb=1 / open_gop=0 / weightp=2 / keyint=599 / keyint_min=59 / scenecut=40 / intra_refresh=0 / rc_lookahead=60 / rc=2pass / mbtree=1 / bitrate=3000 / ratetol=1.0 / qcomp=0.60 / qpmin=0 / qpmax=69 / qpstep=4 / cplxblur=20.0 / qblur=0.5 / ip_ratio=1.40 / aq=1:1.00
Language : English
Default : Yes
Forced : No
Audio
ID : 2
Format : AC-3
Format/Info : Audio Coding 3
Mode extension : CM (complete main)
Format settings, Endianness : Big
Codec ID : A_AC3
Duration : 1h 57mn
Bit rate mode : Constant
Bit rate : 448 Kbps
Channel(s) : 6 channels
Channel positions : Front: L C R, Side: L R, LFE
Sampling rate : 48.0 KHz
Bit depth : 16 bits
Compression mode : Lossy
Stream size : 377 MiB (13%)
Title : AC-3, 448 Kbps, 5.1, 48.0 KHz, 16 bits
Language : English
Default : Yes
Forced : No
Menu
00:00:00.000 : :01.Opening
00:01:07.234 : :02.Dream On (Guitar Intro)
00:03:51.367 : :03.The Dead Of Night
00:08:52.134 : :04.The Sweetest Condition
00:12:32.568 : :05.Halo
00:17:21.035 : :06.Walking In My Shoes
00:23:47.168 : :07.Dream On
00:29:27.168 : :08.When The Body Speaks
00:36:25.368 : :09.Waiting For The Night
00:42:30.302 : :10.It Doesn't Master Two
00:46:17.569 : :11.Breathe
00:52:09.003 : :12.Freelove
00:58:48.370 : :13.Enjoy The Silence
01:06:17.204 : :14.I Feel You
01:13:04.938 : :15.In Your Room
01:18:36.806 : :16.It's No Good
01:23:16.240 : :17.Personal Jesus
01:31:06.041 : :18.Home
01:37:10.541 : :19.Condemnation
01:41:33.142 : :20.Black Celebration
01:46:23.110 : :21.Never Let Me Down Again
 
Показать сообщения:    

Текущее время: 03-Дек 16:44

Часовой пояс: UTC + 3


Вы не можете начинать темы
Вы не можете отвечать на сообщения
Вы не можете редактировать свои сообщения
Вы не можете удалять свои сообщения
Вы не можете голосовать в опросах
Вы не можете прикреплять файлы к сообщениям
Вы не можете скачивать файлы