Музыка Depeche mode - Devotional. Live In Barcelona (1993) DVDRip | 60 fps Музыка -Информация о Концерте
Исполнитель: Depeche mode
Название: Devotional. Live In Barcelona
Год выхода: 1993
Продолжительность: 01:33:59
О Концерте:
Съёмки проводились на концертах в Барселоне, Испания (Palau Sant Jordi), Льевене, Франция (Stade Couvert Régional) и Франкфурте-на-Майне, Германия (Festhalle). Режиссёром выступил Антон Корбейн. Релиз состоялся в 1993 году. В 1995 году номинировался на премию «Грэмми» за лучший музыкальный фильм. Саундтрек был записан в Льевене на Stade Couvert Régional 29 июля 1993 года. Этот тур особенно примечателен некоторыми личными проблемами, посетившими участников группы, прежде всего начавшейся героиновой зависимостью Дейва Гаана. Это был последний релиз перед тем, как Алан Уайлдер покинул группу в 1995 году.-Файл
Кодек: MPEG4/ISO/AVC/ H.264
Формат: MKV
Качество: DVDRip | 60 fps
Видео: 720x576| 59.940 fps 2.5 Мбит/сек
Аудио: AC3 | 448 Кбит/сек | 44.1 KHz | 5.1 channels

Треклист:

01. Higher Love
02. World In My Eyes
03. Walking In My Shoes
04. Behind The Wheel
05. Stripped
06. Condemnation
07. Judas
08. Mercy In You
09. I Feel You
10. Never Let Me Down Again
11. Rush
12. In Your Room
13. Personal Jesus
14. Enjoy The Silence
15. Fly On The Windscreen
16. Everything Count

MI

Video
ID : 1
Format : AVC
Format/Info : Advanced Video Codec
Format profile : High@L3.1
Format settings, CABAC : Yes
Format settings, ReFrames : 5 frames
Codec ID : V_MPEG4/ISO/AVC
Duration : 1h 33mn
Bit rate : 2 500 Kbps
Width : 720 pixels
Height : 576 pixels
Display aspect ratio : 5:4
Frame rate mode : Constant
Frame rate : 60.000 fps
Standard : PAL
Color space : YUV
Chroma subsampling : 4:2:0
Bit depth : 8 bits
Scan type : Progressive
Bits/(Pixel*Frame) : 0.100
Stream size : 1.60 GiB (83%)
Writing library : x264 core 146 r2538 121396c
Encoding settings : cabac=1 / ref=5 / deblock=1:-1:-1 / analyse=0x3:0x113 / me=umh / subme=8 / psy=1 / psy_rd=1.00:0.15 / mixed_ref=1 / me_range=16 / chroma_me=1 / trellis=1 / 8x8dct=1 / cqm=0 / deadzone=21,11 / fast_pskip=1 / chroma_qp_offset=-3 / threads=6 / lookahead_threads=1 / sliced_threads=0 / nr=0 / decimate=1 / interlaced=0 / bluray_compat=0 / constrained_intra=0 / bframes=3 / b_pyramid=2 / b_adapt=2 / b_bias=0 / direct=3 / weightb=1 / open_gop=0 / weightp=2 / keyint=600 / keyint_min=60 / scenecut=40 / intra_refresh=0 / rc_lookahead=50 / rc=2pass / mbtree=1 / bitrate=2500 / ratetol=1.0 / qcomp=0.60 / qpmin=0 / qpmax=69 / qpstep=4 / cplxblur=20.0 / qblur=0.5 / ip_ratio=1.40 / aq=1:1.00
Default : Yes
Forced : No
Audio
ID : 2
Format : AC-3
Format/Info : Audio Coding 3
Mode extension : CM (complete main)
Format settings, Endianness : Big
Codec ID : A_AC3
Duration : 1h 33mn
Bit rate mode : Constant
Bit rate : 448 Kbps
Channel(s) : 6 channels
Channel positions : Front: L C R, Side: L R, LFE
Sampling rate : 48.0 KHz
Bit depth : 16 bits
Compression mode : Lossy
Stream size : 301 MiB (15%)
Title : AC-3, 48.0 KHz, 5.1, 448 Kbps, 16 bits
Language : English
Default : Yes
Forced : No
Menu
00:00:00.000 : :01.Higher Love
00:07:17.880 : :02.World In My Eyes
00:13:18.960 : :03.Walking In My Shoes
00:19:56.840 : :04.Behind The Wheel
00:25:31.600 : :05.Stripped
00:30:36.880 : :06.Condemnation
00:34:32.280 : :07.Judas
00:39:29.880 : :08.Mercy In You
00:43:45.120 : :09.I Feel You
00:50:40.840 : :10.Never Let Me Down Again
00:55:26.040 : :11.Rush
01:00:03.480 : :12.In Your Room
01:07:30.880 : :13.Personal Jesus
01:13:10.480 : :14.Enjoy The Silence
01:19:40.960 : :15.Fly On The Windscreen
01:24:51.480 : :16.Everything Count
01:30:20.280 : :17.Titles
 
Показать сообщения:    

Текущее время: 08-Дек 19:03

Часовой пояс: UTC + 3


Вы не можете начинать темы
Вы не можете отвечать на сообщения
Вы не можете редактировать свои сообщения
Вы не можете удалять свои сообщения
Вы не можете голосовать в опросах
Вы не можете прикреплять файлы к сообщениям
Вы не можете скачивать файлы