Богемская рапсодия /Bohemian Rhapsody (2018) BDRip 1080p | 60 fps Властелин колец: Трилогия / The Lord of the Rings: Trilogy (2001-2003) BDRip-AVC | Extended Cut | 60 fps Апгрейд / Upgrade (2018) BDRip 1080p | 60 fps Альфа / Alpha (2018) BDRip 720p | 60 fps Проклятие монахини / The Nun (2018) BDRip 720p | 60 fps 22 мили / Mile 22 (2018) BDRip 720p | 60 fps Кристофер Робин / Christopher Robin (2018) BDRip 1080p | 60 fps Маугли / Mowgli (2018) BDRip 720p | 60 fps
  1. bot

    Longevity:
    4 years 7 months
    Posts:
    417
    Gender:
    Unknown
    -Название: День сурка
    Оригинальное название: Groundhog Day
    Год выпуска: 1993
    Страна: США
    Жанр: фэнтези, драма, мелодрама, комедия
    Продолжительность: 01:41:17
    Перевод: Профессиональный многоголосый
    Субтитры: русские (Полные), английские (Полные)-Режиссер: Харольд Рэмис / Harold Ramis-В ролях: Билл Мюррей (Phil), Энди МакДауэлл (Rita), Крис Эллиот (Larry), Стивен Тоболовски (Ned), Брайан Дойл-Мюррей (Buster), Марита Герати (Nancy), Анджела Пэтон (Mrs. Lancaster), Рик Дукомман (Gus), Рик Овертон (Ralph), Робин Дьюк (Doris the Waitress), Кэрол Бивинс (Anchorwoman), Уилли Гарсон (Phil's Assistant Kenny)-Описание:
    Телевизионный комментатор Фил Коннорс каждый год приезжает в маленький городок в штате Пенсильвания на празднование Дня сурка. Но на этот раз веселье рискует зайти слишком далеко. Время сыграло с ним злую шутку: оно взяло да и остановилось.
    Теперь на календаре Фила чернеет одна и та же дата - 2 февраля, из которой он никак не может выбраться. Неунывающий ведущий пытается извлечь выгоду из своего комичного положения: впереди у него уйма времени и безмятежное предсказуемое будущее.
    Отныне с ним не случится ничего плохого... и ничего хорошего. У Фила осталась одна заветная мечта, простая и незамысловатая - 3 февраля...-Рейтинг

    imdb.com: 8.10 (343 380)
    MPAA: PG - Рекомендуется присутствие родителей-Качество: BDRip 1080p / 60 FPS
    Формат: MKV
    Видео кодек: AVC
    Аудио кодек:AC3
    Видео: AVC, 1920x1040 (16:9), 14000 kbps, 59,940 fps, 0,117 bpp
    Аудио №1: русский / AC3 / 5.1 / 48 kHz / 448 kbps / 16 bit |Многоголосый, закадровый R5|
    Аудио №2: русский / AC3 / 5.1 / 48 kHz / 448 kbps / 16 bit |Многоголосый, закадровый ОРТ|
    Аудио №3: русский / AC3 / 2.0 / 48 kHz / 192 kbps / 16 bit |Многоголосый, закадровый РТР|
    Аудио №4: русский / AC3 / 2.0 / 48 kHz / 192 kbps / 16 bit |Двухголосый, закадровый Рен-ТВ|
    Аудио №5: английский / AC3 / 5.1 / 48 kHz / 640 kbps / 16 bit
    Навигация по главам: есть- -

    MI

    General
    Unique ID : 248440460777738232511117843197363765422 (0xBAE7E46C85BDF51F85A6E531A9AC40AE)
    Complete name : A:1080p 60fpsДень сурка 1080p 60fps.mkv
    Format : Matroska
    Format version : Version 4 / Version 2
    File size : 11.3 GiB
    Duration : 1h 41mn
    Overall bit rate : 15.9 Mbps
    Movie name : R.G. HD-Films by Tiberiumsun69 60fps
    Encoded date : UTC 2014-12-07 07:46:14
    Writing application : mkvmerge v7.3.0 ('Nouages') 64bit built on Oct 22 2014 18:53:34
    Writing library : libebml v1.3.0 + libmatroska v1.4.1
    Attachment : Yes
    Video
    ID : 1
    Format : AVC
    Format/Info : Advanced Video Codec
    Format profile : High@L4.1
    Format settings, CABAC : Yes
    Format settings, ReFrames : 4 frames
    Codec ID : V_MPEG4/ISO/AVC
    Duration : 1h 41mn
    Bit rate : 14.0 Mbps
    Width : 1 920 pixels
    Height : 1 040 pixels
    Display aspect ratio : 16:9
    Frame rate : 59.940 fps
    Color space : YUV
    Chroma subsampling : 4:2:0
    Bit depth : 8 bits
    Scan type : Progressive
    Bits/(Pixel*Frame) : 0.117
    Stream size : 9.69 GiB (86%)
    Writing library : x264 core 142 r2491 24e4fed
    Encoding settings : cabac=1 / ref=4 / deblock=1:-1:-1 / analyse=0x3:0 / me=umh / subme=10 / psy=1 / psy_rd=1.00:0.00 / mixed_ref=1 / me_range=32 / chroma_me=0 / trellis=2 / 8x8dct=1 / cqm=0 / deadzone=21,11 / fast_pskip=1 / chroma_qp_offset=-2 / threads=12 / lookahead_threads=1 / sliced_threads=0 / nr=0 / decimate=1 / interlaced=0 / bluray_compat=0 / constrained_intra=0 / bframes=5 / b_pyramid=2 / b_adapt=2 / b_bias=0 / direct=1 / weightb=1 / open_gop=0 / weightp=2 / keyint=250 / keyint_min=59 / scenecut=40 / intra_refresh=0 / rc=2pass / mbtree=0 / bitrate=14000 / ratetol=1.0 / qcomp=0.80 / qpmin=0 / qpmax=69 / qpstep=4 / cplxblur=20.0 / qblur=0.5 / ip_ratio=1.40 / pb_ratio=1.30 / aq=1:1.00
    Language : English
    Default : Yes
    Forced : No
    Audio #1
    ID : 2
    Format : AC-3
    Format/Info : Audio Coding 3
    Mode extension : CM (complete main)
    Codec ID : A_AC3
    Duration : 1h 41mn
    Bit rate mode : Constant
    Bit rate : 448 Kbps
    Channel(s) : 6 channels
    Channel positions : Front: L C R, Side: L R, LFE
    Sampling rate : 48.0 KHz
    Bit depth : 16 bits
    Compression mode : Lossy
    Stream size : 325 MiB (3%)
    Title : Многоголосый, закадровый R5
    Language : Russian
    Default : Yes
    Forced : No
    Audio #2
    ID : 3
    Format : AC-3
    Format/Info : Audio Coding 3
    Mode extension : CM (complete main)
    Codec ID : A_AC3
    Duration : 1h 41mn
    Bit rate mode : Constant
    Bit rate : 448 Kbps
    Channel(s) : 6 channels
    Channel positions : Front: L C R, Side: L R, LFE
    Sampling rate : 48.0 KHz
    Bit depth : 16 bits
    Compression mode : Lossy
    Stream size : 325 MiB (3%)
    Title : Многоголосый, закадровый ОРТ
    Language : Russian
    Default : No
    Forced : No
    Audio #3
    ID : 4
    Format : AC-3
    Format/Info : Audio Coding 3
    Mode extension : CM (complete main)
    Codec ID : A_AC3
    Duration : 1h 41mn
    Bit rate mode : Constant
    Bit rate : 192 Kbps
    Channel(s) : 2 channels
    Channel positions : Front: L R
    Sampling rate : 48.0 KHz
    Bit depth : 16 bits
    Compression mode : Lossy
    Stream size : 139 MiB (1%)
    Title : Многоголосый, закадровый РТР
    Language : Russian
    Default : No
    Forced : No
    Audio #4
    ID : 5
    Format : AC-3
    Format/Info : Audio Coding 3
    Mode extension : CM (complete main)
    Codec ID : A_AC3
    Duration : 1h 41mn
    Bit rate mode : Constant
    Bit rate : 192 Kbps
    Channel(s) : 2 channels
    Channel positions : Front: L R
    Sampling rate : 48.0 KHz
    Bit depth : 16 bits
    Compression mode : Lossy
    Stream size : 139 MiB (1%)
    Title : Двухголосый, закадровый Рен-ТВ
    Language : Russian
    Default : No
    Forced : No
    Audio #5
    ID : 6
    Format : AC-3
    Format/Info : Audio Coding 3
    Mode extension : CM (complete main)
    Codec ID : A_AC3
    Duration : 1h 41mn
    Bit rate mode : Constant
    Bit rate : 640 Kbps
    Channel(s) : 6 channels
    Channel positions : Front: L C R, Side: L R, LFE
    Sampling rate : 48.0 KHz
    Bit depth : 16 bits
    Compression mode : Lossy
    Stream size : 464 MiB (4%)
    Title : Оригинал
    Language : English
    Default : No
    Forced : No
    Text #1
    ID : 7
    Format : UTF-8
    Codec ID : S_TEXT/UTF8
    Codec ID/Info : UTF-8 Plain Text
    Title : Полные
    Language : Russian
    Default : No
    Forced : No
    Text #2
    ID : 8
    Format : UTF-8
    Codec ID : S_TEXT/UTF8
    Codec ID/Info : UTF-8 Plain Text
    Title : Полные
    Language : English
    Default : No
    Forced : No
    Menu
    00:00:00.000 : Chapter 1
    00:02:51.240 : Chapter 2
    00:03:52.635 : Chapter 3
    00:07:44.492 : Chapter 4
    00:12:23.312 : Chapter 5
    00:18:30.179 : Chapter 6
    00:22:43.057 : Chapter 7
    00:25:33.227 : Chapter 8
    00:26:38.917 : Chapter 9
    00:28:41.205 : Chapter 10
    00:34:55.652 : Chapter 11
    00:36:07.320 : Chapter 12
    00:38:12.318 : Chapter 13
    00:38:59.157 : Chapter 14
    00:41:13.541 : Chapter 15
    00:43:30.637 : Chapter 16
    00:44:30.864 : Chapter 17
    00:57:20.507 : Chapter 18
    01:00:42.291 : Chapter 19
    01:06:21.047 : Chapter 20
    01:15:38.645 : Chapter 21
    01:17:00.685 : Chapter 22
    01:20:12.292 : Chapter 23
    01:23:20.483 : Chapter 24
    01:26:41.725 : Chapter 25
    01:30:16.479 : Chapter 26
    01:33:02.354 : Chapter 27
    01:35:04.019 : Chapter 28

    Скриншоты

  2. Longevity:
    4 years 6 months
    Posts:
    26
    Gender:
    Unknown
    Спасибо!


You cannot post new topics in this forum
You cannot reply to topics in this forum
You cannot edit your posts in this forum
You cannot delete your posts in this forum
You cannot vote in polls in this forum
You cannot attach files in this forum
You cannot download files in this forum