Властелин колец: Трилогия / The Lord of the Rings: Trilogy (2001-2003) BDRip-AVC | Extended Cut | 60 fps Принц Персии: Пески времени / Prince of Persia: The Sands of Time (2010) BDRip 1080p | 60 fps К звёздам / Ad Astra (2019) BDRip 1080p | 60 fps 21 мост / 21 Bridges (2019) BDRip 1080p | 60 fps Достать ножи / Knives Out (2019) BDRip 1080p | 60 fps Удивительное путешествие доктора Дулиттла / Dolittle (2020) BDRip 1080p | 60 fps День, когда Земля остановилась / The Day the Earth Stood Still (2008) BDRip 1080p | 60 fps Паразиты / Gisaengchung (2019) BDRip 1080p | 60 fps
  1. Longevity:
    5 years 11 months
    Posts:
    311
    Gender:
    Male
    День независимости: Возрождение / Independence Day: Resurgence (2016) BDRip 720p | 48fps«У нас было двадцать лет на подготовку. У них тоже»- Информация
    Название: День независимости: Возрождение
    Оригинальное название: Independence Day: Resurgence
    Год выхода: 2016
    Жанр: Фантастика, боевик, приключения
    Режиссер: Роланд Эммерих
    Продюсер: Дин Девлин, Роланд Эммерих, Харальд Клозер
    В ролях: Лиам Хемсворт, Джефф Голдблюм, Джесси Ашер, Билл Пуллман, Майка Монро, Села Уорд, Уильям Фихтнер, Джадд Хёрш, Брент Спайнер, Патрик Ст. Эсприт
    Описание:
    Используя инопланетные технологии, жители Земли создали специальную программу по защите планеты. Но ничего не может нас спасти от нового, еще более разрушительного и масштабного инопланетного вторжения — только смелость нескольких героев, которые единственные могут спасти наш мир от уничтожения.
    Страна: США
    Студия: 20th Century Fox Film Corporation
    Продолжительность: 01:59:44
    Перевод: Дублированный (Лицензия)
    Субтитры: Вшитые, отключаемые
    Язык субтитров: Русский (Full), Английский (Full)

    Дата мировой премьеры:20 июня 2016
    Дата российской премьеры:23 июня 2016, «Двадцатый Век Фокс СНГ»
    Файл
    Формат: MKV
    Кодек: MPEG-4 AVC/H.264
    Качество: BDRip 720p
    Видео: ~ 13.0 Мбит/сек, 1280 x 536, 47.952 кадров/сек
    Аудио: AC3 5.1, 48.0 KHz, 640 Кбит/сек - Русский

    MediaInfo

    Общее
    Уникальный идентификатор : 235673520859222784547988367831107562529 (0xB14D11B006ACA5E5B4B49262D342EC21)
    Полное имя : E:\Торренты\Independence Day.Resurgence 48fps.mkv
    Формат : Matroska
    Версия формата : Version 4 / Version 2
    Размер файла : 11,6 Гбайт
    Продолжительность : 1 ч. 59 м.
    Общий поток : 13,9 Мбит/сек
    Дата кодирования : UTC 2016-10-23 11:55:54
    Программа кодирования : mkvmerge v6.9.1 ('Blue Panther') 64bit built on Apr 18 2014 18:23:38
    Библиотека кодирования : libebml v1.3.0 + libmatroska v1.4.1
    Видео
    Идентификатор : 1
    Формат : AVC
    Формат/Информация : Advanced Video Codec
    Профиль формата : High@L4.1
    Параметр CABAC формата : Да
    Параметр ReFrames формата : 6 кадров
    Идентификатор кодека : V_MPEG4/ISO/AVC
    Продолжительность : 1 ч. 59 м.
    Битрейт : 13,0 Мбит/сек
    Ширина : 1280 пикселей
    Высота : 536 пикселей
    Соотношение сторон : 2,40:1
    Режим частоты кадров : Постоянный
    Частота кадров : 47,952 (47952/1000) кадров/сек
    Цветовое пространство : YUV
    Субдискретизация насыщенности : 4:2:0
    Битовая глубина : 8 бит
    Тип развёртки : Прогрессивная
    Бит/(Пиксели*Кадры) : 0.395
    Размер потока : 10,9 Гбайт (93%)
    Заголовок : Release by mimok
    Библиотека кодирования : x264 core 130 r2273 b3065e6
    Настройки программы : cabac=1 / ref=6 / deblock=1:-1:-1 / analyse=0x3:0x133 / me=umh / subme=8 / psy=1 / psy_rd=1.00:0.15 / mixed_ref=1 / me_range=20 / chroma_me=1 / trellis=2 / 8x8dct=1 / cqm=0 / deadzone=21,11 / fast_pskip=0 / chroma_qp_offset=-3 / threads=6 / lookahead_threads=2 / sliced_threads=0 / nr=0 / decimate=0 / interlaced=0 / bluray_compat=0 / constrained_intra=0 / bframes=8 / b_pyramid=2 / b_adapt=2 / b_bias=0 / direct=1 / weightb=1 / open_gop=0 / weightp=2 / keyint=250 / keyint_min=25 / scenecut=40 / intra_refresh=0 / rc=crf / mbtree=0 / crf=16.0 / qcomp=0.63 / qpmin=10 / qpmax=51 / qpstep=4 / ip_ratio=1.40 / pb_ratio=1.30 / aq=2:1.20
    Default : Да
    Forced : Нет
    Аудио
    Идентификатор : 2
    Формат : AC-3
    Формат/Информация : Audio Coding 3
    Расширение режима : CM (complete main)
    Параметр Endianness формата : Big
    Идентификатор кодека : A_AC3
    Продолжительность : 1 ч. 59 м.
    Вид битрейта : Постоянный
    Битрейт : 640 Кбит/сек
    Каналы : 6 каналов
    Расположение каналов : Front: L C R, Side: L R, LFE
    Частота : 48,0 КГц
    Частота кадров : 31,250 кадров/сек (1536 spf)
    Метод сжатия : С потерями
    Размер потока : 548 Мбайт (5%)
    Заголовок : Dub
    Язык : Russian
    Default : Да
    Forced : Нет
    Текст #1
    Идентификатор : 3
    Формат : UTF-8
    Идентификатор кодека : S_TEXT/UTF8
    Идентификатор кодека/Информация : UTF-8 Plain Text
    Заголовок : Full
    Язык : Russian
    Default : Да
    Forced : Нет
    Текст #2
    Идентификатор : 4
    Формат : UTF-8
    Идентификатор кодека : S_TEXT/UTF8
    Идентификатор кодека/Информация : UTF-8 Plain Text
    Заголовок : Full
    Язык : English
    Default : Нет
    Forced : Нет
    Скриншоты:

    Release was prepared by 60 - fps

  2. Longevity:
    5 years 1 month
    Posts:
    149
    Gender:
    Male
    Большое Спасибо Овации
    24-Oct-2016 10:09 (after 18 hours)
  3. Longevity:
    3 years 1 month
    Posts:
    1
    Gender:
    Unknown
    Пожалуйста, на раздачу :(
    01-Oct-2017 09:19 (after 11 months 6 days)


You cannot post new topics in this forum
You cannot reply to topics in this forum
You cannot edit your posts in this forum
You cannot delete your posts in this forum
You cannot vote in polls in this forum
You cannot attach files in this forum
You cannot download files in this forum