[Цитировать]
mimok

День независимости / Independence Day (1996) BDRip 720p | Extended Cut | Remastered | 60fps«We've always believed we weren't alone. On July 4th, we'll wish we were»- Информация
Название: День независимости
Оригинальное название: Independence Day
Год выхода: 1996
Жанр: Фантастика, боевик, приключения
Режиссер: Роланд Эммерих
Продюсер: Дин Девлин, Роланд Эммерих, Уте Эммерих
В ролях: Уилл Смит, Джефф Голдблюм, Билл Пуллман, Мэри МакДоннелл, Джадд Хёрш, Роберт Лоджа, Рэнди Куэйд, Маргарет Колин, Вивика А. Фокс, Джеймс Ребхорн
Описание:
На Земле принимается сигнал, посланный источником явно неземного происхождения. Источник этот приближается, и на «уши» поднимается вся планета. Никто, правда, не ожидал, что инопланетяне окажутся такими огромными и в таком количестве.
Страна: США
Студия: 20th Century Fox Film Corporation
Продолжительность: 02:33:33
Перевод: Многоголосый закадровый
Субтитры: Вшитые, отключаемые
Язык субтитров: Русский (Full), Английский (Full)

Дата мировой премьеры:25 июня 1996
Дата выхода DVD релиза:10 июня 2004, «Гемини-Фильм»
Дата выхода Blu-Ray релиза:25 марта 2010, «Двадцатый Век Фокс СНГ»
Файл
Формат: MKV
Кодек: MPEG-4 AVC/H.264
Качество: BDRip 720p
Видео: ~ 15.3 Мбит/сек, 1280 x 536, 59.940 кадров/сек
Аудио#1: Русский DTS 5.1, 48.0 KHz, 755 Кбит/сек - MVO Superbit
Аудио#2: Русский AC3 2.0, 48.0 KHz, 192 Кбит/сек - MVO Гемини
Аудио#3: Русский AC3 5.1, 48.0 KHz, 448 Кбит/сек - MVO Киномания
Аудио#4: Русский AC3 5.1, 48.0 KHz, 640 Кбит/сек - AVO Ю.Живов
Аудио#5: Английский AC3 5.1, 48.0 KHz, 640 Кбит/сек - Original

MediaInfo

Общее
Уникальный идентификатор : 205485138359366456682025880723621261586 (0x9A96FF84171463CDBC3520A00D61B112)
Полное имя : E:\Торренты\Independence Day 60fps (1).mkv
Формат : Matroska
Версия формата : Version 4 / Version 2
Размер файла : 19,6 Гбайт
Продолжительность : 2 ч. 33 м.
Общий поток : 18,3 Мбит/сек
Название фильма : Independence Day (1996) [Extended Cut] 1080p BD-Remux
Дата кодирования : UTC 2016-06-25 06:15:40
Программа кодирования : mkvmerge v6.9.1 ('Blue Panther') 64bit built on Apr 18 2014 18:23:38
Библиотека кодирования : libebml v1.3.0 + libmatroska v1.4.1
Видео
Идентификатор : 1
Формат : AVC
Формат/Информация : Advanced Video Codec
Профиль формата : High@L4.1
Параметр CABAC формата : Да
Параметр ReFrames формата : 6 кадров
Идентификатор кодека : V_MPEG4/ISO/AVC
Продолжительность : 2 ч. 33 м.
Битрейт : 15,3 Мбит/сек
Ширина : 1280 пикселей
Высота : 536 пикселей
Соотношение сторон : 2,40:1
Режим частоты кадров : Постоянный
Частота кадров : 59,940 (59940/1000) кадров/сек
Цветовое пространство : YUV
Субдискретизация насыщенности : 4:2:0
Битовая глубина : 8 бит
Тип развёртки : Прогрессивная
Бит/(Пиксели*Кадры) : 0.371
Размер потока : 16,4 Гбайт (83%)
Заголовок : Release by mimok
Библиотека кодирования : x264 core 130 r2273 b3065e6
Настройки программы : cabac=1 / ref=6 / deblock=1:-1:-1 / analyse=0x3:0x133 / me=umh / subme=8 / psy=1 / psy_rd=1.00:0.15 / mixed_ref=1 / me_range=24 / chroma_me=1 / trellis=2 / 8x8dct=1 / cqm=0 / deadzone=21,11 / fast_pskip=0 / chroma_qp_offset=-3 / threads=6 / lookahead_threads=2 / sliced_threads=0 / nr=0 / decimate=0 / interlaced=0 / bluray_compat=0 / constrained_intra=0 / bframes=8 / b_pyramid=2 / b_adapt=2 / b_bias=0 / direct=1 / weightb=1 / open_gop=0 / weightp=2 / keyint=250 / keyint_min=25 / scenecut=40 / intra_refresh=0 / rc=crf / mbtree=0 / crf=16.0 / qcomp=0.63 / qpmin=10 / qpmax=51 / qpstep=4 / ip_ratio=1.40 / pb_ratio=1.30 / aq=2:1.20
Default : Да
Forced : Нет
Аудио #1
Идентификатор : 2
Формат : DTS
Формат/Информация : Digital Theater Systems
Режим : 16
Параметр Endianness формата : Big
Идентификатор кодека : A_DTS
Продолжительность : 2 ч. 33 м.
Вид битрейта : Постоянный
Битрейт : 755 Кбит/сек
Каналы : 6 каналов
Расположение каналов : Front: L C R, Side: L R, LFE
Частота : 48,0 КГц
Частота кадров : 93,750 кадра/сек (512 spf)
Битовая глубина : 24 бит
Метод сжатия : С потерями
Размер потока : 829 Мбайт (4%)
Заголовок : MVO Superbit
Язык : Russian
Default : Да
Forced : Нет
Аудио #2
Идентификатор : 3
Формат : AC-3
Формат/Информация : Audio Coding 3
Расширение режима : CM (complete main)
Параметр Endianness формата : Big
Идентификатор кодека : A_AC3
Продолжительность : 2 ч. 33 м.
Вид битрейта : Постоянный
Битрейт : 192 Кбит/сек
Каналы : 2 канала
Расположение каналов : Front: L R
Частота : 48,0 КГц
Частота кадров : 31,250 кадров/сек (1536 spf)
Метод сжатия : С потерями
Размер потока : 211 Мбайт (1%)
Заголовок : MVO Гемини
Язык : Russian
Default : Нет
Forced : Нет
Аудио #3
Идентификатор : 4
Формат : AC-3
Формат/Информация : Audio Coding 3
Расширение режима : CM (complete main)
Параметр Endianness формата : Big
Идентификатор кодека : A_AC3
Продолжительность : 2 ч. 33 м.
Вид битрейта : Постоянный
Битрейт : 448 Кбит/сек
Каналы : 6 каналов
Расположение каналов : Front: L C R, Side: L R, LFE
Частота : 48,0 КГц
Частота кадров : 31,250 кадров/сек (1536 spf)
Метод сжатия : С потерями
Размер потока : 492 Мбайт (2%)
Заголовок : MVO Киномания
Язык : Russian
Default : Нет
Forced : Нет
Аудио #4
Идентификатор : 5
Формат : AC-3
Формат/Информация : Audio Coding 3
Расширение режима : CM (complete main)
Параметр Endianness формата : Big
Идентификатор кодека : A_AC3
Продолжительность : 2 ч. 33 м.
Вид битрейта : Постоянный
Битрейт : 640 Кбит/сек
Каналы : 6 каналов
Расположение каналов : Front: L C R, Side: L R, LFE
Частота : 48,0 КГц
Частота кадров : 31,250 кадров/сек (1536 spf)
Метод сжатия : С потерями
Размер потока : 703 Мбайт (3%)
Заголовок : AVO Ю.Живов
Язык : Russian
Default : Нет
Forced : Нет
Аудио #5
Идентификатор : 6
Формат : AC-3
Формат/Информация : Audio Coding 3
Расширение режима : CM (complete main)
Параметр Endianness формата : Big
Идентификатор кодека : A_AC3
Продолжительность : 2 ч. 33 м.
Вид битрейта : Постоянный
Битрейт : 640 Кбит/сек
Каналы : 6 каналов
Расположение каналов : Front: L C R, Side: L R, LFE
Частота : 48,0 КГц
Частота кадров : 31,250 кадров/сек (1536 spf)
Метод сжатия : С потерями
Размер потока : 703 Мбайт (3%)
Заголовок : Original
Язык : English
Default : Нет
Forced : Нет
Текст #1
Идентификатор : 7
Формат : PGS
Режим смешивания : zlib
Идентификатор кодека : S_HDMV/PGS
Идентификатор кодека/Информация : Picture based subtitle format used on BDs/HD-DVDs
Заголовок : Full
Язык : Russian
Default : Да
Forced : Нет
Текст #2
Идентификатор : 8
Формат : PGS
Режим смешивания : zlib
Идентификатор кодека : S_HDMV/PGS
Идентификатор кодека/Информация : Picture based subtitle format used on BDs/HD-DVDs
Заголовок : Full
Язык : English
Default : Нет
Forced : Нет
Скриншоты:

Релиз подготовлен 60 - fps

[Цитировать]
babu2

Улыбаюсь

[Цитировать]
said9999

Классный фильм. Овации
 
Показать сообщения:    

Текущее время: 02-Дек 21:09

Часовой пояс: UTC + 3


Вы не можете начинать темы
Вы не можете отвечать на сообщения
Вы не можете редактировать свои сообщения
Вы не можете удалять свои сообщения
Вы не можете голосовать в опросах
Вы не можете прикреплять файлы к сообщениям
Вы не можете скачивать файлы