-Название: День независимости
Оригинальное название: Independence Day
Год выпуска: 1996
Страна: США
Жанр: фантастика, боевик, приключения
Продолжительность: 02:24:48
Перевод: Профессиональный многоголосый
Субтитры: русские (Полные), английские (Полные)-Режиссер: Роланд Эммерих / Roland Emmerich-В ролях: Уилл Смит (Captain Steven Hiller), Джефф Голдблюм (David Levinson), Билл Пуллман (President Thomas J. Whitmore), Мэри МакДоннелл (First Lady Marilyn Whitmore), Джадд Хёрш (Julius Levinson), Роберт Лоджа (General William Grey), Рэнди Куэйд (Russell Casse), Маргарет Колин (Constance Spano), Вивика А. Фокс (Jasmine Dubrow), Джеймс Ребхорн (Albert Nimziki), Харви Фирштейн (Marty Gilbert), Адам Болдуин (Major Mitchell)-Описание:
На Земле принимается сигнал, посланный источником явно неземного происхождения. Источник этот приближается, и на «уши» поднимается вся планета. Никто, правда, не ожидал, что инопланетяне окажутся такими огромными и в таком количестве.-Рейтинг
kinopoisk.ru: 7.730 (67 048)
imdb.com: 6.90 (348 418)
MPAA: PG-13 - Детям до 13 лет просмотр не желателен-Качество: BDRip 1080p / 60 FPS
Формат: MKV
Видеокодек: MPEG-4 AVC/H.264
Битрейт видео: ~9473 kb/s
Размер кадра: 1920*816
Аудио 1 Русский: AC3 5.1, 640 kb/s, Blu-ray CEE (В контейнере)
Аудио 2 Английский: AC3 5.1, 640 kb/s, (В контейнере)
Аудио 3 Украинский: AC3 2.0, 256 kb/s, ICTV (Отдельно)
Аудио 4 Русский: AC3 5.1, 640 kb/s, А.Гаврилов (Отдельно)
Аудио 5 Русский: AC3 2.0, 192 kb/s, В.Яковлев (Отдельно)
Аудио 6 Русский: AC3 5.1, 640 kb/s, Карусель (Отдельно)
Аудио 7 Русский: AC3 5.1, 448 kb/s, НТВ+ (Отдельно)
Аудио 8 Русский: AC3 2.0, 192 kb/s, Премьер видео (Отдельно)
Аудио 9 Русский: AC3 5.1, 640 kb/s, С.Визгунов (Отдельно)
Аудио 10 Русский: AC3 5.1, 640 kb/s, Ю.Живов (Отдельно)
Навигация по главам: есть-

MI

Общее
Уникальный идентификатор : 232712270750429303636800289394609657698 (0xAF12C0C8F6AA22FBA31B2A8334089762)
Полное имя : F:\День независимости 1080p 60fps\День независимости 1080p 60fps.mkv
Формат : Matroska
Версия формата : Version 4 / Version 2
Размер файла : 11,1 Гбайт
Продолжительность : 2 ч. 24 м.
Общий поток : 11,0 Мбит/сек
Дата кодирования : UTC 2014-06-21 03:26:59
Программа кодирования : mkvmerge v7.0.0 ('Where We Going') 64bit built on Jun 9 2014 15:16:27
Библиотека кодирования : libebml v1.3.0 + libmatroska v1.4.1
DURATION : 02:23:40.946000000
NUMBER_OF_FRAMES : 1448
NUMBER_OF_BYTES : 55323
_STATISTICS_WRITING_APP : mkvmerge v7.0.0 ('Where We Going') 64bit built on Jun 9 2014 15:16:27
_STATISTICS_WRITING_DATE_UTC : 2014-06-21 03:26:59
_STATISTICS_TAGS : BPS DURATION NUMBER_OF_FRAMES NUMBER_OF_BYTES
Видео
Идентификатор : 1
Формат : AVC
Формат/Информация : Advanced Video Codec
Профиль формата : High@L4.1
Параметр CABAC формата : Да
Параметр ReFrames формата : 4 кадра
Идентификатор кодека : V_MPEG4/ISO/AVC
Продолжительность : 2 ч. 24 м.
Битрейт : 9473 Кбит/сек
Ширина : 1920 пикселей
Высота : 816 пикселей
Соотношение сторон : 2,35:1
Режим частоты кадров : Постоянный
Частота кадров : 59,880 кадров/сек
Частота кадров в оригинале : 59,940 кадров/сек
Цветовое пространство : YUV
Субдискретизация насыщенности : 4:2:0
Битовая глубина : 8 бит
Тип развёртки : Прогрессивная
Бит/(Пиксели*Кадры) : 0.101
Размер потока : 9,58 Гбайт (86%)
Библиотека кодирования : x264 core 130 r2273 b3065e6
Настройки программы : cabac=1 / ref=4 / deblock=1:-1:-1 / analyse=0x3:0 / me=umh / subme=9 / psy=1 / psy_rd=1.00:0.10 / mixed_ref=1 / me_range=24 / chroma_me=0 / trellis=1 / 8x8dct=1 / cqm=0 / deadzone=21,11 / fast_pskip=0 / chroma_qp_offset=-3 / threads=12 / lookahead_threads=1 / sliced_threads=0 / nr=0 / decimate=0 / interlaced=0 / bluray_compat=0 / constrained_intra=0 / bframes=5 / b_pyramid=2 / b_adapt=2 / b_bias=0 / direct=1 / weightb=1 / open_gop=0 / weightp=2 / keyint=599 / keyint_min=59 / scenecut=40 / intra_refresh=0 / rc=crf / mbtree=0 / crf=18.0 / qcomp=0.60 / qpmin=0 / qpmax=69 / qpstep=4 / ip_ratio=1.40 / pb_ratio=1.30 / aq=1:0.90
Язык : English
Default : Да
Forced : Нет
DURATION : 02:24:48.322000000
NUMBER_OF_FRAMES : 520778
NUMBER_OF_BYTES : 10519875415
_STATISTICS_WRITING_APP : mkvmerge v7.0.0 ('Where We Going') 64bit built on Jun 9 2014 15:16:27
_STATISTICS_WRITING_DATE_UTC : 2014-06-21 03:26:59
_STATISTICS_TAGS : BPS DURATION NUMBER_OF_FRAMES NUMBER_OF_BYTES
Аудио #1
Идентификатор : 2
Формат : AC-3
Формат/Информация : Audio Coding 3
Расширение режима : CM (complete main)
Параметр Endianness формата : Big
Идентификатор кодека : A_AC3
Продолжительность : 2 ч. 24 м.
Вид битрейта : Постоянный
Битрейт : 640 Кбит/сек
Каналы : 6 каналов
Расположение каналов : Front: L C R, Side: L R, LFE
Частота : 48,0 КГц
Битовая глубина : 16 бит
Метод сжатия : С потерями
Размер потока : 663 Мбайт (6%)
Заголовок : MVO
Язык : Russian
Default : Да
Forced : Нет
Аудио #2
Идентификатор : 3
Формат : AC-3
Формат/Информация : Audio Coding 3
Расширение режима : CM (complete main)
Параметр Endianness формата : Big
Идентификатор кодека : A_AC3
Продолжительность : 2 ч. 24 м.
Вид битрейта : Постоянный
Битрейт : 640 Кбит/сек
Каналы : 6 каналов
Расположение каналов : Front: L C R, Side: L R, LFE
Частота : 48,0 КГц
Битовая глубина : 16 бит
Метод сжатия : С потерями
Размер потока : 663 Мбайт (6%)
Заголовок : Original
Язык : English
Default : Нет
Forced : Нет
Текст #1
Идентификатор : 4
Формат : UTF-8
Идентификатор кодека : S_TEXT/UTF8
Идентификатор кодека/Информация : UTF-8 Plain Text
Заголовок : Full
Язык : Russian
Default : Нет
Forced : Нет
Текст #2
Идентификатор : 5
Формат : UTF-8
Идентификатор кодека : S_TEXT/UTF8
Идентификатор кодека/Информация : UTF-8 Plain Text
Заголовок : Full
Язык : English
Default : Нет
Forced : Нет
Меню
00:00:00.000 : en:en:CHAPTER01
00:02:43.872 : en:en:CHAPTER02
00:05:01.467 : en:en:CHAPTER03
00:07:05.675 : en:en:CHAPTER04
00:07:35.329 : en:en:CHAPTER05
00:08:54.700 : en:en:CHAPTER06
00:10:02.977 : en:en:CHAPTER07
00:11:39.699 : en:en:CHAPTER08
00:13:32.645 : en:en:CHAPTER09
00:17:32.968 : en:en:CHAPTER10
00:24:09.114 : en:en:CHAPTER11
00:25:59.724 : en:en:CHAPTER12
00:28:46.808 : en:en:CHAPTER13
00:30:54.102 : en:en:CHAPTER14
00:32:48.633 : en:en:CHAPTER15
00:34:18.639 : en:en:CHAPTER16
00:35:55.528 : en:en:CHAPTER17
00:37:05.765 : en:en:CHAPTER18
00:37:29.622 : en:en:CHAPTER19
00:38:37.565 : en:en:CHAPTER20
00:40:17.415 : en:en:CHAPTER21
00:41:42.291 : en:en:CHAPTER22
00:44:27.498 : en:en:CHAPTER23
00:46:21.528 : en:en:CHAPTER24
00:50:03.417 : en:en:CHAPTER25
00:53:01.970 : en:en:CHAPTER26
00:53:44.638 : en:en:CHAPTER27
00:58:50.527 : en:en:CHAPTER28
01:00:09.689 : en:en:CHAPTER29
01:01:37.276 : en:en:CHAPTER30
01:02:32.498 : en:en:CHAPTER31
01:03:17.293 : en:en:CHAPTER32
01:06:19.308 : en:en:CHAPTER33
01:07:20.661 : en:en:CHAPTER34
01:09:08.018 : en:en:CHAPTER35
01:12:59.416 : en:en:CHAPTER36
01:15:05.000 : en:en:CHAPTER37
01:17:55.045 : en:en:CHAPTER38
01:19:44.946 : en:en:CHAPTER39
01:27:20.526 : en:en:CHAPTER40
01:30:47.483 : en:en:CHAPTER41
01:31:50.838 : en:en:CHAPTER42
01:34:47.056 : en:en:CHAPTER43
01:41:28.499 : en:en:CHAPTER44
01:45:20.605 : en:en:CHAPTER45
01:46:56.326 : en:en:CHAPTER46
01:51:34.020 : en:en:CHAPTER47
01:55:58.660 : en:en:CHAPTER48
01:59:36.669 : en:en:CHAPTER49
02:02:45.941 : en:en:CHAPTER50
02:03:07.922 : en:en:CHAPTER51
02:08:36.625 : en:en:CHAPTER52
02:12:32.653 : en:en:CHAPTER53
02:16:04.156 : en:en:CHAPTER54

Скриншоты

[Цитировать]
Шева

WOW!
 
Показать сообщения:    

Текущее время: 06-Дек 15:13

Часовой пояс: UTC + 3


Вы не можете начинать темы
Вы не можете отвечать на сообщения
Вы не можете редактировать свои сообщения
Вы не можете удалять свои сообщения
Вы не можете голосовать в опросах
Вы не можете прикреплять файлы к сообщениям
Вы не можете скачивать файлы