Неистовый / Unhinged (2020) BDRip 1080p | 60 fps Хищник : Антология / Predator : Antology (1987-2018) BDRip 1080p | 60 fps Танго и Кэш / Tango & Cash (1989) BDRemux 1080p | 60 fps Властелин колец: Трилогия / The Lord of the Rings: Trilogy (2001-2003) BDRip-AVC | Extended Cut | 60 fps Армагеддон / Armageddon (1998) BDRip 720p | 60 fps Роман с камнем / Romancing the Stone (1984) BDRip 1080p | 60 fps Не входи / The Owners(2020) BDRip 720p | 60 fps Звездный десант / Starship Troopers (1997) BDRip 1080p | 60 fps
  1. Longevity:
    6 years 8 months
    Posts:
    2414
    Gender:
    Male
    «Есть вещи страшнее смерти»- Информация
    Название: Демон внутри / Вскрытие Джейн Доу
    Оригинальное название: The Autopsy of Jane Doe
    Год выхода: 2016
    Жанр: Ужасы, триллер
    Режиссер: Андре Овредал
    Сценарий: Йен Б. Голдберг, Ричард Найнг
    Продюсер: Рори Аиткен, Фред Бергер, Эрик Гарсия
    В ролях: Эмиль Хирш, Брайан Кокс, Офелия Ловибонд, Майкл МакЭлхаттон, Олуэн Катрин Келли, Паркер Сойерс, Джейн Перри, Ив О’Хара
    --Сюжет:
    Патологоанатомы маленького городка получают тело жертвы таинственного убийства — красивой и молодой девушки без видимой причины смерти. Они пытаются выяснить, кто она и как умерла, обнаруживая все более причудливые подсказки, которые ведут к тайнам её жизни и смерти.
    - Страна: Великобритания, США
    Продолжительность: 01:26:22

    Файл
    Кодек: MPEG4/ISO/AVC/H.264
    Формат: MKV
    Качество: BDRip 1080p | 60 fps
    Видео: 1920 x 800 (2.400) | 59.940 fps | 20.0 Мбит/сек
    Аудио 1: AC3 | 5.1 | 48 kHz | 384 kbps | 16 bit | Профессиональный многоголосый закадровый - AlexFilm |
    Аудио 2: AC3 | 5.1 | 48 kHz | 384 kbps | 16 bit | Любительский одноголосый - BadBajo |
    Аудио 3: AC3 | 5.1 | 48 kHz | 448 kbps | 16 bit | Любительский одноголосый - Solod |
    Аудио 4: AC3 | 5.1 | 48 kHz | 448 kbps | 16 bit | ENG |
    Субтитры: Русские, английские

    MedifInfo

    Видео
    Идентификатор : 1
    Формат : AVC
    Формат/Информация : Advanced Video Codec
    Профиль формата : [email protected]
    Параметр CABAC формата : Да
    Параметр ReFrames формата : 5 кадров
    Идентификатор кодека : V_MPEG4/ISO/AVC
    Продолжительность : 1 ч. 26 м.
    Битрейт : 20,0 Мбит/сек
    Ширина : 1920 пикселей
    Высота : 800 пикселей
    Соотношение сторон : 2,40:1
    Режим частоты кадров : Постоянный
    Частота кадров : 59,880 кадров/сек
    Частота кадров в оригинале : 59,940 кадров/сек
    Цветовое пространство : YUV
    Субдискретизация насыщенности : 4:2:0
    Битовая глубина : 8 бит
    Тип развёртки : Прогрессивная
    Бит/(Пиксели*Кадры) : 0.217
    Размер потока : 11,8 Гбайт (90%)
    Заголовок : www.60-fps.org
    Библиотека кодирования : x264 core 148 r2638 7599210
    Настройки программы : cabac=1 / ref=5 / deblock=1:-3:-3 / analyse=0x3:0x113 / me=umh / subme=8 / psy=1 / psy_rd=1.00:0.25 / mixed_ref=1 / me_range=32 / chroma_me=1 / trellis=1 / 8x8dct=1 / cqm=0 / deadzone=6,6 / fast_pskip=1 / chroma_qp_offset=-4 / threads=12 / lookahead_threads=2 / sliced_threads=0 / nr=0 / decimate=0 / interlaced=0 / bluray_compat=0 / constrained_intra=0 / bframes=3 / b_pyramid=2 / b_adapt=2 / b_bias=0 / direct=3 / weightb=1 / open_gop=0 / weightp=2 / keyint=599 / keyint_min=59 / scenecut=40 / intra_refresh=0 / rc_lookahead=50 / rc=2pass / mbtree=1 / bitrate=19999 / ratetol=1.0 / qcomp=0.80 / qpmin=0 / qpmax=69 / qpstep=4 / cplxblur=20.0 / qblur=0.5 / vbv_maxrate=62500 / vbv_bufsize=78125 / nal_hrd=none / filler=0 / ip_ratio=1.10 / aq=1:0.50
    Default : Да
    Forced : Нет
    Аудио #1
    Идентификатор : 2
    Формат : AC-3
    Формат/Информация : Audio Coding 3
    Расширение режима : CM (complete main)
    Параметр Endianness формата : Big
    Идентификатор кодека : A_AC3
    Продолжительность : 1 ч. 26 м.
    Вид битрейта : Постоянный
    Битрейт : 384 Кбит/сек
    Каналы : 6 каналов
    Расположение каналов : Front: L C R, Side: L R, LFE
    Частота : 48,0 КГц
    Битовая глубина : 16 бит
    Метод сжатия : С потерями
    Размер потока : 237 Мбайт (2%)
    Заголовок : Профессиональный многоголосый закадровый - AlexFilm
    Язык : Russian
    Default : Да
    Forced : Нет
    Аудио #2
    Идентификатор : 3
    Формат : AC-3
    Формат/Информация : Audio Coding 3
    Расширение режима : CM (complete main)
    Параметр Endianness формата : Big
    Идентификатор кодека : A_AC3
    Продолжительность : 1 ч. 26 м.
    Вид битрейта : Постоянный
    Битрейт : 384 Кбит/сек
    Каналы : 6 каналов
    Расположение каналов : Front: L C R, Side: L R, LFE
    Частота : 48,0 КГц
    Битовая глубина : 16 бит
    Метод сжатия : С потерями
    Размер потока : 237 Мбайт (2%)
    Заголовок : Любительский одноголосый - BadBajo
    Язык : Russian
    Default : Нет
    Forced : Нет
    Аудио #3
    Идентификатор : 4
    Формат : AC-3
    Формат/Информация : Audio Coding 3
    Расширение режима : CM (complete main)
    Параметр Endianness формата : Big
    Идентификатор кодека : A_AC3
    Продолжительность : 1 ч. 26 м.
    Вид битрейта : Постоянный
    Битрейт : 448 Кбит/сек
    Каналы : 6 каналов
    Расположение каналов : Front: L C R, Side: L R, LFE
    Частота : 48,0 КГц
    Битовая глубина : 16 бит
    Метод сжатия : С потерями
    Размер потока : 277 Мбайт (2%)
    Заголовок : Любительский одноголосый - Solod
    Язык : Russian
    Default : Нет
    Forced : Нет
    Аудио #4
    Идентификатор : 5
    Формат : AC-3
    Формат/Информация : Audio Coding 3
    Расширение режима : CM (complete main)
    Параметр Endianness формата : Big
    Идентификатор кодека : A_AC3
    Продолжительность : 1 ч. 26 м.
    Вид битрейта : Постоянный
    Битрейт : 448 Кбит/сек
    Каналы : 6 каналов
    Расположение каналов : Front: L C R, Side: L R, LFE
    Частота : 48,0 КГц
    Битовая глубина : 16 бит
    Метод сжатия : С потерями
    Размер потока : 277 Мбайт (2%)
    Заголовок : Eng
    Язык : English
    Default : Нет
    Forced : Нет
    Текст #1
    Идентификатор : 6
    Формат : UTF-8
    Идентификатор кодека : S_TEXT/UTF8
    Идентификатор кодека/Информация : UTF-8 Plain Text
    Язык : Russian
    Default : Да
    Forced : Нет
    Текст #2
    Идентификатор : 7
    Формат : UTF-8
    Идентификатор кодека : S_TEXT/UTF8
    Идентификатор кодека/Информация : UTF-8 Plain Text
    Язык : English
    Default : Нет
    Forced : Нет
    Меню
    00:00:00.000 : :1
    00:10:03.603 : :2
    00:20:03.494 : :3
    00:30:30.203 : :4
    00:40:25.923 : :5
    00:50:23.562 : :6
    01:00:38.343 : :7
    01:09:57.526 : :8
    01:21:45.025 : :9

    Release was prepared by 60-fps.org

  2. Longevity:
    4 years 8 months
    Posts:
    7
    Gender:
    Unknown
    720p будет ?
    20-Apr-2017 14:55 (after 5 days)
  3. Longevity:
    6 years 8 months
    Posts:
    2414
    Gender:
    Male
    7742720p будет ?
    Нет .
    20-Apr-2017 15:24 (after 28 minutes)
  4. Longevity:
    4 years 4 months
    Posts:
    4
    Gender:
    Male
    На фоне всего шлака в жанре "ужасы" который был последнее время, этот фильм смотрится вполне неплохо.
    Уровень хорош. Конечно "пугалочки" все банальные, но сюжет и идея в новинку. Для тех кто любит этот жанр фильм стоит посмотреть.
    (есть конечно некоторые не доработки и иногда не понятное поведение героев, а больше всего не понятно как там оказалась та девушка, главного героя, в конце фильма.) Ну не суть.
    Итого 8 из 10 можно поставить)) Да
    03-May-2017 19:03 (after 13 days)
  5. Longevity:
    5 years 6 months
    Posts:
    6
    Gender:
    Male
    Спасибо!
    20-May-2017 21:34 (after 17 days)
  6. Longevity:
    4 years 6 months
    Posts:
    24
    Gender:
    Male
    Да фильм не плох, ещё бы любительские переводы выкинуть отуда, можно было бы вес файла уместить меньше 10 Гиг.
    21-May-2017 07:06 (after 9 hours)


You cannot post new topics in this forum
You cannot reply to topics in this forum
You cannot edit your posts in this forum
You cannot delete your posts in this forum
You cannot vote in polls in this forum
You cannot attach files in this forum
You cannot download files in this forum