[Цитировать]
Kryl

--Demi Lovato - Cool for the Summer (2015) WEBRip 1080p | 60 fps --Информация о Клипе
Исполнитель: Demi Lovato
Название: Cool for the Summer
Год выхода: 2015
Продолжительность: 00:03:47-Файл
Кодек: MPEG4/ISO/AVC/ H.264
Формат: MKV
Качество: WEBRip 1080p
Видео: 1920 x 816 (2.353) at 59.940 fps 9.5 Мбит/сек
Аудио: MP3 at 320 Кбит/сек | 44.1 KHz | 2 channels

MI

Видео
Видео
Идентификатор : 1
Формат : AVC
Формат/Информация : Advanced Video Codec
Профиль формата : Main@L4.2
Параметр CABAC формата : Да
Параметр ReFrames формата : 3 кадра
Параметр GOP формата : M=4, N=72
Идентификатор кодека : V_MPEG4/ISO/AVC
Продолжительность : 3 м. 47 с.
Битрейт : 9582 Кбит/сек
Ширина : 1920 пикселей
Высота : 816 пикселей
Соотношение сторон : 2,35:1
Режим частоты кадров : Постоянный
Частота кадров : 59,880 кадров/сек
Частота кадров в оригинале : 59,940 кадров/сек
Стандарт вещания : PAL
Цветовое пространство : YUV
Субдискретизация насыщенности : 4:2:0
Битовая глубина : 8 бит
Тип развёртки : Прогрессивная
Бит/(Пиксели*Кадры) : 0.102
Размер потока : 260 Мбайт (95%)
Заголовок : www.60-fps.org
Язык : English
Default : Да
Forced : Нет
Основные цвета : BT.709
Характеристики трансфера : BT.709
Коэффициенты матрицы : BT.709
colour_range : Limited
Аудио
Идентификатор : 2
Формат : MPEG Audio
Версия формата : Version 1
Профиль формата : Layer 3
Режим : Joint stereo
Идентификатор кодека : A_MPEG/L3
Идентификатор кодека/Подсказка : MP3
Продолжительность : 3 м. 47 с.
Вид битрейта : Постоянный
Битрейт : 320 Кбит/сек
Каналы : 2 канала
Частота : 44,1 КГц
Метод сжатия : С потерями
Размер потока : 8,69 Мбайт (3%)
Заголовок : MP3
Библиотека кодирования : LAME3.99.5
Default : Да
Forced : Нет

Релиз подготовлен 60 - fps

[60-fps.org].t1062.torrent
Торрент: Зарегистрирован [ 2015-09-16 10:50 ] · EC1681640CEFC344D8F4E74D3590F2DD0CD36E95

Скачать .torrent

Скачать

11 KB

Статус: проверено
Скачан: 53 раз
Поблагодарили:
Размер: 274 MB
 
Похожие Темы

[Цитировать]
Darren Frior

There are no seeds for this.
 
Показать сообщения:    

Текущее время: 22-Фев 04:42

Часовой пояс: UTC + 3


Вы не можете начинать темы
Вы не можете отвечать на сообщения
Вы не можете редактировать свои сообщения
Вы не можете удалять свои сообщения
Вы не можете голосовать в опросах
Вы не можете прикреплять файлы к сообщениям
Вы можете скачивать файлы