[Цитировать]
Kryl

Дежа Вю (1989) HDTVRip 1080p | 60fps- Информация о фильме
Название: Дежа Вю
Год выхода: 1989
Жанр: Комедия
Режиссер: Юлиуш Махульский
Сценарий: Александр Бородянский, Юлиуш Махульский
В ролях:
Ежи Штур, Владимир Головин, Николай Караченцов, Виктор Степанов, Галина Петрова, Олег Шкловский, Лиза Махульска, Василий Мищенко, Владимир Белоусов, Всеволод Сафонов, Виталий Шаповалов, Войцех Высоцкий, Армен Хостикян, Микаэл Джанибекян, Ждислав Амброжек, Рышард Котыс, Владимир Миняйло, Анатолий Котенёв, Фауст Миндлин, Валерий Берда-Скляренко, Цезары Пазура, Семен Крупник, Джафар Гафурбеков, Владимир Носырев, Никита Высоцкий, Александр Морозов, Василий Кортуков, Вадим Александров, Виктор Павловский, Юрий Орлов, Татьяна Степанова, Игорь Тильтиков, Франческа Переплетчикова, Жигмунт Хобот, Геннадий Венгеров, Александр Зверев, Валентин Козачков, Ян Махульский
----О фильме:
1925 год. В СССР — НЭП, в США — «сухой закон». Мафия чикагских бутлегеров (подпольных торговцев спиртным) разыскивает некоего Мика Нича — Микиту Ничипорука, который оказался стукачом. Выясняется, что он сбежал в советскую Одессу, где открывает «великий самогонный путь» по доставке спиртных напитков по побережью Северного Ледовитого океана из России в Америку. Для ликвидации предателя нанимается самый знаменитый киллер — американский гангстер польского происхождения Джон Поллак по кличке «Профессор». Под видом профессора-энтомолога, следующего на Суматру ловить бабочек, Поллак прибывает в Одессу, «чтобы навестить могилу отца»...- - Страна: Польша, СССР
Продолжительность: 01:44:01
--Файл
Кодек: MPEG4/ISO/AVC H.264
Формат: MKV
Качество: HDTVRip 1080p
Видео: 1808 x 1080 (1.674) | 60.000 fps | 10.0 Мбит/сек
Аудио : AC3 | 2.0 | 48 kHz | 192 kbps | 16 bit |

MedifInfo

Видео
Идентификатор : 1
Формат : AVC
Формат/Информация : Advanced Video Codec
Профиль формата : High@L4.2
Параметр CABAC формата : Да
Параметр ReFrames формата : 4 кадра
Идентификатор кодека : V_MPEG4/ISO/AVC
Продолжительность : 1 ч. 44 м.
Битрейт : 9999 Кбит/сек
Ширина : 1808 пикселей
Высота : 1080 пикселей
Соотношение сторон : 1,674
Режим частоты кадров : Постоянный
Частота кадров : 60,000 кадров/сек
Цветовое пространство : YUV
Субдискретизация насыщенности : 4:2:0
Битовая глубина : 8 бит
Тип развёртки : Прогрессивная
Бит/(Пиксели*Кадры) : 0.085
Размер потока : 7,17 Гбайт (96%)
Заголовок : www.60-fps.org
Библиотека кодирования : x264 core 129 r2245 bc13772
Настройки программы : cabac=1 / ref=4 / deblock=1:-3:-3 / analyse=0x3:0x133 / me=esa / subme=9 / psy=1 / psy_rd=1.00:0.25 / mixed_ref=1 / me_range=32 / chroma_me=1 / trellis=2 / 8x8dct=1 / cqm=0 / deadzone=6,6 / fast_pskip=1 / chroma_qp_offset=-4 / threads=12 / lookahead_threads=2 / sliced_threads=0 / nr=0 / decimate=0 / interlaced=0 / bluray_compat=0 / constrained_intra=0 / bframes=4 / b_pyramid=2 / b_adapt=2 / b_bias=0 / direct=3 / weightb=1 / open_gop=0 / weightp=2 / keyint=600 / keyint_min=60 / scenecut=40 / intra_refresh=0 / rc_lookahead=60 / rc=2pass / mbtree=1 / bitrate=9999 / ratetol=1.0 / qcomp=0.80 / qpmin=0 / qpmax=69 / qpstep=4 / cplxblur=19.0 / qblur=0.0 / ip_ratio=1.10 / aq=1:0.50
Язык : English
Default : Да
Forced : Нет
DURATION : 01:44:46.967000000
NUMBER_OF_FRAMES : 377218
NUMBER_OF_BYTES : 7854519814
_STATISTICS_WRITING_APP : mkvmerge v7.6.0 ('Garden of Dreams') 64bit built on Feb 8 2015 13:04:34
_STATISTICS_WRITING_DATE_UTC : 2015-03-02 15:15:25
_STATISTICS_TAGS : BPS DURATION NUMBER_OF_FRAMES NUMBER_OF_BYTES
Аудио
Идентификатор : 2
Формат : AC-3
Формат/Информация : Audio Coding 3
Расширение режима : CM (complete main)
Параметр Endianness формата : Big
Идентификатор кодека : A_AC3
Продолжительность : 1 ч. 44 м.
Вид битрейта : Постоянный
Битрейт : 192 Кбит/сек
Каналы : 2 канала
Расположение каналов : Front: L R
Частота : 48,0 КГц
Битовая глубина : 16 бит
Метод сжатия : С потерями
Размер потока : 144 Мбайт (2%)
Заголовок : www.60-fps.org
Default : Да
Forced : Нет

Релиз подготовлен 60 - fps

[Цитировать]
Edik

К сожалению эти 1080р идут плохо.Данная картина идёт со звуком отставшим!

[Цитировать]
Kryl

4507К сожалению эти 1080р идут плохо.Данная картина идёт со звуком отставшим!
кодеки обновить попробуйте .

[Цитировать]
ily122

Товарищи ! Дайте скачать ! Встаньте на раздачу !
Спасибо за труд автору !

[Цитировать]
Kryl

6351Товарищи ! Дайте скачать ! Встаньте на раздачу !
Спасибо за труд автору !
качайте.

[Цитировать]
ily122

Здравствуйте уважаемый Kryl !
Спасибо , что обратили внимание на мою просьбу .
Скачал только половину фильма . Пожалуйста , помогите скачать до конца !
С Уважением , ily122 .

[Цитировать]
ily122

Большое спасибо !

[Цитировать]
Kryl

6354Большое спасибо !
Не за что .

[Цитировать]
ButcherCCCP

Встаньте на раздачу плз. Сомневаюсь

[Цитировать]
ButcherCCCP

Ай спасибо, молодца !
 
Показать сообщения:    

Текущее время: 24-Сен 22:13

Часовой пояс: UTC + 3


Вы не можете начинать темы
Вы не можете отвечать на сообщения
Вы не можете редактировать свои сообщения
Вы не можете удалять свои сообщения
Вы не можете голосовать в опросах
Вы не можете прикреплять файлы к сообщениям
Вы не можете скачивать файлы