Властелин колец: Трилогия / The Lord of the Rings: Trilogy (2001-2003) BDRip-AVC | Extended Cut | 60 fps Принц Персии: Пески времени / Prince of Persia: The Sands of Time (2010) BDRip 1080p | 60 fps День, когда Земля остановилась / The Day the Earth Stood Still (2008) BDRip 1080p | 60 fps К звёздам / Ad Astra (2019) BDRip 1080p | 60 fps Удивительное путешествие доктора Дулиттла / Dolittle (2020) BDRip 1080p | 60 fps Охота / The Hunt (2020) BDRip 1080p | 60 fps Пятый элемент / The Fifth Element (1997) BDRip 1080p | 60 fps Фантастическая четверка : Дилогия / Fantastic Four: Dilogy (2005-2007) BDRip 1080p | 60 fps
  1. Longevity:
    6 years
    Posts:
    311
    Gender:
    Male
    Дэдпул / Deadpool (2016) BDRip 720p | 48fps«Стань свидетелем, как он кончит»- Информация о фильме
    Название: Дэдпул
    Оригинальное название: Deadpool
    Год выхода: 2016
    Жанр: Фантастика, боевик, комедия, приключения
    Режиссер: Тим Миллер
    Продюсер: Саймон Кинберг, Райан Рейнольдс, Лорен Шулер Доннер
    В ролях: Райан Рейнольдс, Морена Баккарин, Эд Скрейн, ТиДжей Миллер, Джина Карано, Брианна Хилдебранд, Стефан Капичич, Лесли Уггэмс, Джед Риис, Каран Сони
    Описание фильма:
    Уэйд Уилсон — наёмник. Будучи побочным продуктом программы вооружённых сил под названием «Оружие X», Уилсон приобрёл невероятную силу, проворство и способность к исцелению. Но страшной ценой: его клеточная структура постоянно меняется, а здравомыслие сомнительно. Всё, чего Уилсон хочет, — это держаться на плаву в социальной выгребной яме. Но течение в ней слишком быстрое.
    Страна: США, Канада
    Студия: Marvel Entertainment, 20th Century Fox Film Corporation
    Продолжительность: 01:48:09
    Перевод: Дублированный (iTunes)
    Субтитры: Вшитые, отключаемые
    Язык субтитров: Русский (Full), Английский (Full)

    Дата мировой премьеры:21 января 2016
    Дата российской премьеры:11 февраля 2016, «Двадцатый Век Фокс СНГ»
    Файл
    Формат: MKV
    Кодек: MPEG-4 AVC/H.264
    Качество: BDRip 720p
    Видео: ~ 8055 Кбит/сек, 1280 x 536, 47.952 кадров/сек
    Аудио: AC3 5.1, 48.0 KHz, 384 Кбит/сек - Русский

    MediaInfo

    Общее
    Уникальный идентификатор : 177194818669145604909277210339748975540 (0x854E7B10E49E868AB208F3FF6D6193B4)
    Полное имя : E:\Торренты\Deadpool 48fps.mkv
    Формат : Matroska
    Версия формата : Version 4 / Version 2
    Размер файла : 6,50 Гбайт
    Продолжительность : 1 ч. 48 м.
    Общий поток : 8610 Кбит/сек
    Название фильма : Deadpool (2016) 1080p BD-Remux
    Дата кодирования : UTC 2016-04-29 14:33:35
    Программа кодирования : mkvmerge v6.9.1 ('Blue Panther') 64bit built on Apr 18 2014 18:23:38
    Библиотека кодирования : libebml v1.3.0 + libmatroska v1.4.1
    Видео
    Идентификатор : 1
    Формат : AVC
    Формат/Информация : Advanced Video Codec
    Профиль формата : High@L4.1
    Параметр CABAC формата : Да
    Параметр ReFrames формата : 6 кадров
    Идентификатор кодека : V_MPEG4/ISO/AVC
    Продолжительность : 1 ч. 48 м.
    Битрейт : 8055 Кбит/сек
    Ширина : 1280 пикселей
    Высота : 536 пикселей
    Соотношение сторон : 2,40:1
    Режим частоты кадров : Постоянный
    Частота кадров : 47,952 (47952/1000) кадров/сек
    Цветовое пространство : YUV
    Субдискретизация насыщенности : 4:2:0
    Битовая глубина : 8 бит
    Тип развёртки : Прогрессивная
    Бит/(Пиксели*Кадры) : 0.245
    Размер потока : 6,09 Гбайт (94%)
    Заголовок : Release by mimok
    Библиотека кодирования : x264 core 130 r2273 b3065e6
    Настройки программы : cabac=1 / ref=6 / deblock=1:-1:-1 / analyse=0x3:0x133 / me=umh / subme=8 / psy=1 / psy_rd=1.00:0.15 / mixed_ref=1 / me_range=20 / chroma_me=1 / trellis=2 / 8x8dct=1 / cqm=0 / deadzone=21,11 / fast_pskip=0 / chroma_qp_offset=-3 / threads=6 / lookahead_threads=2 / sliced_threads=0 / nr=0 / decimate=0 / interlaced=0 / bluray_compat=0 / constrained_intra=0 / bframes=8 / b_pyramid=2 / b_adapt=2 / b_bias=0 / direct=1 / weightb=1 / open_gop=0 / weightp=2 / keyint=250 / keyint_min=25 / scenecut=40 / intra_refresh=0 / rc=crf / mbtree=0 / crf=17.0 / qcomp=0.63 / qpmin=10 / qpmax=51 / qpstep=4 / ip_ratio=1.40 / pb_ratio=1.30 / aq=2:1.20
    Default : Да
    Forced : Нет
    Аудио
    Идентификатор : 2
    Формат : AC-3
    Формат/Информация : Audio Coding 3
    Расширение режима : CM (complete main)
    Параметр Endianness формата : Big
    Идентификатор кодека : A_AC3
    Продолжительность : 1 ч. 48 м.
    Вид битрейта : Постоянный
    Битрейт : 384 Кбит/сек
    Каналы : 6 каналов
    Расположение каналов : Front: L C R, Side: L R, LFE
    Частота : 48,0 КГц
    Частота кадров : 31,250 кадров/сек (1536 spf)
    Метод сжатия : С потерями
    Размер потока : 297 Мбайт (4%)
    Заголовок : iTunes
    Язык : Russian
    Default : Да
    Forced : Нет
    Текст #1
    Идентификатор : 3
    Формат : UTF-8
    Идентификатор кодека : S_TEXT/UTF8
    Идентификатор кодека/Информация : UTF-8 Plain Text
    Заголовок : Full
    Язык : Russian
    Default : Да
    Forced : Нет
    Текст #2
    Идентификатор : 4
    Формат : UTF-8
    Идентификатор кодека : S_TEXT/UTF8
    Идентификатор кодека/Информация : UTF-8 Plain Text
    Заголовок : Full
    Язык : English
    Default : Нет
    Forced : Нет
    Скриншоты:

    Release was prepared by 60 - fps

  2. Longevity:
    5 years 5 months
    Posts:
    97
    Gender:
    Unknown
    Фильм необычный...
    про такого же необычного "типа" героя..))
    29-Apr-2016 17:57 (after 8 minutes)
  3. Longevity:
    5 years 8 months
    Posts:
    6
    Gender:
    Unknown
    спасибо за этот вклад
    30-Apr-2016 16:21 (after 22 hours)
  4. Longevity:
    4 years 8 months
    Posts:
    1
    Gender:
    Unknown
    Дэдпул / Deadpool (2016) BDRip 720p | 48fps
    идеальный вариант, спасибо!!!
    01-May-2016 01:24 (after 9 hours)
  5. Longevity:
    5 years 2 months
    Posts:
    149
    Gender:
    Male
    Огромно Спасибо!
    08-May-2016 15:09 (after 7 days)
  6. Longevity:
    4 years 5 months
    Posts:
    3
    Gender:
    Unknown
    мне его прорекламировали как нечто особое в отношении комиксов.
    в действительности фильм похож на "очень страшное кино", только гораздо скучнее, злее и с присутствием супергероев.
    в 2016 подобный юмор кажется архаичным а фильм, если не держать в голове его ЦА, несуразным.
    30-Jun-2016 19:03 (after 1 month 22 days)


You cannot post new topics in this forum
You cannot reply to topics in this forum
You cannot edit your posts in this forum
You cannot delete your posts in this forum
You cannot vote in polls in this forum
You cannot attach files in this forum
You cannot download files in this forum