[Цитировать]
Kryl

Фильм «Стань свидетелем, как он кончит» Фильм- Информация
Название: Дэдпул
Оригинальное название: Deadpool
Год выхода: 2016
Жанр: Фантастика, боевик, триллер, приключения, комедия
Режиссер: Тим Миллер
Сценарий: Ретт Риз, Пол Верник, Фабиан Нициезе
Продюсер: Саймон Кинберг, Райан Рейнольдс, Лорен Шулер Доннер
В ролях: Райан Рейнольдс, Морена Баккарин, Джина Карано, ТиДжей Миллер, Эд Скрейн, Рэйчел Шин, Брианна Хилдебранд, Андре Трикоте, Тэйлор Хиксон, Джед Риис
--Сюжет:
Уэйд Уилсон — наёмник. Будучи побочным продуктом программы вооружённых сил под названием «Оружие X», Уилсон приобрёл невероятную силу, проворство и способность к исцелению. Но страшной ценой: его клеточная структура постоянно меняется, а здравомыслие сомнительно. Всё, чего Уилсон хочет, — это держаться на плаву в социальной выгребной яме. Но течение в ней слишком быстрое.- - Страна: США, Канада
Продолжительность: 01:48:16

Файл
Кодек: MPEG4/ISO/AVC H.264
Формат: MKV
Качество: BDRip 1080p | 60 fps
Видео: 1920 x 800 (2.400) | 59.940 fps | 25.0 Мбит/сек
Аудио 1: AC3 | 5.1 | 48 kHz | 384 kbps | 16 bit | Дубляж iTunes |
Аудио 2: AC3 | 2.0 | 48 kHz | 192 kbps | 16 bit | Авторский, Е.Гаевский |
Аудио 3: AC3 | 2.0 | 48 kHz | 192 kbps | 16 bit | Любительский, В.Замез |
Аудио 4: AC3 | 2.0 | 48 kHz | 192 kbps | 16 bit | Любительский, В.Замез (без цензуры) |
Аудио 5: AC3 | 2.0 | 48 kHz | 192 kbps | 16 bit | Украинский iTunes |
Аудио 6: DTS-HD| 7.1 | 48 kHz | 4892 kbps | 24 bit | ENG |
Субтитры: Russian (Forced, iTunes), Russian (iTunes), Ukrainian (Forced, iTunes), Ukrainian (iTunes), English

MedifInfo

Видео
Идентификатор : 1
Формат : AVC
Формат/Информация : Advanced Video Codec
Профиль формата : High@L4.2
Параметр CABAC формата : Да
Параметр ReFrames формата : 3 кадра
Идентификатор кодека : V_MPEG4/ISO/AVC
Продолжительность : 1 ч. 48 м.
Вид битрейта : Переменный
Максимальный битрейт : 25,0 Мбит/сек
Ширина : 1920 пикселей
Высота : 800 пикселей
Соотношение сторон : 2,40:1
Режим частоты кадров : Постоянный
Частота кадров : 59,880 кадров/сек
Частота кадров в оригинале : 59,940 кадров/сек
Стандарт вещания : PAL
Цветовое пространство : YUV
Субдискретизация насыщенности : 4:2:0
Битовая глубина : 8 бит
Тип развёртки : Прогрессивная
Заголовок : www.60-fps.org
Язык : English
Default : Да
Forced : Нет
Основные цвета : BT.709
Характеристики трансфера : BT.709
Коэффициенты матрицы : BT.709
colour_range : Limited
Аудио #1
Идентификатор : 2
Формат : AC-3
Формат/Информация : Audio Coding 3
Расширение режима : CM (complete main)
Параметр Endianness формата : Big
Идентификатор кодека : A_AC3
Продолжительность : 1 ч. 48 м.
Вид битрейта : Постоянный
Битрейт : 384 Кбит/сек
Каналы : 6 каналов
Расположение каналов : Front: L C R, Side: L R, LFE
Частота : 48,0 КГц
Битовая глубина : 16 бит
Метод сжатия : С потерями
Задержка видео : 2 с. 0 мс.
Размер потока : 297 Мбайт (1%)
Заголовок : DUB biTunesB
Язык : Russian
Default : Да
Forced : Нет
Аудио #2
Идентификатор : 3
Формат : AC-3
Формат/Информация : Audio Coding 3
Расширение режима : CM (complete main)
Параметр Endianness формата : Big
Идентификатор кодека : A_AC3
Продолжительность : 1 ч. 48 м.
Вид битрейта : Постоянный
Битрейт : 192 Кбит/сек
Каналы : 2 канала
Расположение каналов : Front: L R
Частота : 48,0 КГц
Битовая глубина : 16 бит
Метод сжатия : С потерями
Задержка видео : 2 с. 0 мс.
Размер потока : 149 Мбайт (1%)
Заголовок : Авторский, Е.Гаевский
Язык : Russian
Default : Нет
Forced : Нет
Аудио #3
Идентификатор : 4
Формат : AC-3
Формат/Информация : Audio Coding 3
Расширение режима : CM (complete main)
Параметр Endianness формата : Big
Идентификатор кодека : A_AC3
Продолжительность : 1 ч. 48 м.
Вид битрейта : Постоянный
Битрейт : 192 Кбит/сек
Каналы : 2 канала
Расположение каналов : Front: L R
Частота : 48,0 КГц
Битовая глубина : 16 бит
Метод сжатия : С потерями
Размер потока : 149 Мбайт (1%)
Заголовок : Любительский, В.Замез
Язык : Russian
Default : Нет
Forced : Нет
Аудио #4
Идентификатор : 5
Формат : AC-3
Формат/Информация : Audio Coding 3
Расширение режима : CM (complete main)
Параметр Endianness формата : Big
Идентификатор кодека : A_AC3
Продолжительность : 1 ч. 48 м.
Вид битрейта : Постоянный
Битрейт : 192 Кбит/сек
Каналы : 2 канала
Расположение каналов : Front: L R
Частота : 48,0 КГц
Битовая глубина : 16 бит
Метод сжатия : С потерями
Размер потока : 149 Мбайт (1%)
Заголовок : Любительский, В.Замез (без цензуры)
Язык : Russian
Default : Нет
Forced : Нет
Аудио #5
Идентификатор : 6
Формат : AC-3
Формат/Информация : Audio Coding 3
Расширение режима : CM (complete main)
Параметр Endianness формата : Big
Идентификатор кодека : A_AC3
Продолжительность : 1 ч. 48 м.
Вид битрейта : Постоянный
Битрейт : 384 Кбит/сек
Каналы : 2 канала
Расположение каналов : Front: L R
Частота : 48,0 КГц
Битовая глубина : 16 бит
Метод сжатия : С потерями
Задержка видео : 2 с. 0 мс.
Размер потока : 297 Мбайт (1%)
Заголовок : Украинский
Язык : Ukrainian
Default : Нет
Forced : Нет
Аудио #6
Идентификатор : 7
Формат : DTS
Формат/Информация : Digital Theater Systems
Профиль формата : MA / Core
Режим : 16
Параметр Endianness формата : Big
Идентификатор кодека : A_DTS
Продолжительность : 1 ч. 48 м.
Вид битрейта : Переменный
Битрейт : Неизвестно / 1509 Кбит/сек
Каналы : 8 каналов / 6 каналов
Расположение каналов : Front: L C R, Side: L R, Back: L R, LFE / Front: L C R, Side: L R, LFE
Частота : 48,0 КГц
Битовая глубина : 24 бит
Метод сжатия : Без потерь / Lossy
Заголовок : ENG
Язык : English
Default : Нет
Forced : Нет
Текст #1
Идентификатор : 8
Формат : UTF-8
Идентификатор кодека : S_TEXT/UTF8
Идентификатор кодека/Информация : UTF-8 Plain Text
Заголовок : Forced
Язык : Russian
Default : Да
Forced : Нет
Текст #2
Идентификатор : 9
Формат : UTF-8
Идентификатор кодека : S_TEXT/UTF8
Идентификатор кодека/Информация : UTF-8 Plain Text
Язык : Russian
Default : Нет
Forced : Нет
Текст #3
Идентификатор : 10
Формат : UTF-8
Идентификатор кодека : S_TEXT/UTF8
Идентификатор кодека/Информация : UTF-8 Plain Text
Заголовок : Forced
Язык : Ukrainian
Default : Нет
Forced : Нет
Текст #4
Идентификатор : 11
Формат : UTF-8
Идентификатор кодека : S_TEXT/UTF8
Идентификатор кодека/Информация : UTF-8 Plain Text
Язык : Ukrainian
Default : Нет
Forced : Нет
Текст #5
Идентификатор : 12
Формат : UTF-8
Идентификатор кодека : S_TEXT/UTF8
Идентификатор кодека/Информация : UTF-8 Plain Text
Язык : English
Default : Нет
Forced : Нет
Меню
00:00:00.000 : en:1
00:03:02.724 : en:2
00:05:51.017 : en:3
00:09:28.818 : en:4
00:13:17.087 : en:5
00:16:46.713 : en:6
00:20:10.541 : en:7
00:22:04.404 : en:8
00:27:07.623 : en:9
00:31:56.953 : en:10
00:36:49.704 : en:11
00:41:04.166 : en:12
00:44:43.760 : en:13
00:46:54.599 : en:14
00:50:08.960 : en:15
00:53:16.022 : en:16
00:55:31.032 : en:17
00:59:05.746 : en:18
01:03:03.233 : en:19
01:07:04.432 : en:20
01:09:13.561 : en:21
01:12:27.713 : en:22
01:16:44.386 : en:23
01:20:41.706 : en:24
01:25:51.390 : en:25
01:31:01.783 : en:26
01:34:44.964 : en:27
01:39:50.728 : en:28

Релиз подготовлен 60 - fps



Последний раз редактировалось: Kryl (2016-04-29 18:36), всего редактировалось 1 раз

[Цитировать]
dadebay

Дождались! Спасибо Kryl Овации

[Цитировать]
Kryl

5784Дождались! Спасибо Kryl Овации
Пожалуйста ..
Вечерком 720p будет готово .

[Цитировать]
luis81z

большая работа, спасибо

[Цитировать]
karras2016

Спасибо Kryl за работу!!! Но что со скоростью раздачи?

[Цитировать]
Kryl

5789Спасибо Kryl за работу!!! Но что со скоростью раздачи?
Как залил , так и не уходил с раздачи ... Гребанный РОСТЕЛЕКОМ (((

[Цитировать]
Kryl

[Цитировать]
Sep15th

Gracias :)
sólo pido seed por favor.

[Цитировать]
mateus1

i need Умник

[Цитировать]
Vitek

класс!!! Смеюсь
 
Показать сообщения:    

Текущее время: 05-Дек 05:26

Часовой пояс: UTC + 3


Вы не можете начинать темы
Вы не можете отвечать на сообщения
Вы не можете редактировать свои сообщения
Вы не можете удалять свои сообщения
Вы не можете голосовать в опросах
Вы не можете прикреплять файлы к сообщениям
Вы не можете скачивать файлы