Taylor Swift - …Ready For It? (2017) WEBRip 1080p | 60 fps Luis Fonsi - Despacito ft. Daddy Yankee (2017) WEBRip 1080p | 60 fps Dan Balan - Chica Bomb (2010) WEBRip 1080p | 60 fps Serebro - В Космосе (2017) Full HD 1080p | 60 fps Shakira - Chantaje ft. Maluma (2016) Full HD 1080p | 60 fps Serebro - Пройдёт (Mood Video) (2017) Full HD 1080p | 60 fps Britney Spears - Toxic (2004) HDTVRip 1080p | 60 fps Katy Perry - Bon Appétit ft. Migos (2017) Full HD 1080p | 60 fps
  1. Стаж:
    3 года 6 месяцев
    Сообщений:
    2290
    Пол:
    Мужской
    -David Guetta Feat. Usher - Without You (2011) Full HD 1080p | 60 fps- -Информация о Клипе
    Исполнитель: David Guetta Feat. Usher
    Название: Without You
    Год выхода: 2013
    Продолжительность: 00:03:41-Файл
    Кодек: MPEG4/ISO/AVC/ H.264
    Формат: MKV
    Качество: MasterRip 1080p
    Видео: 1920 x 780 (2.462) at 60.000 fps 24.3 Мбит/сек
    Аудио : AC-3 | 640 Кбит/сек | 48.0 KHz | 2.0 channels

    MI

    Видео
    Идентификатор : 1
    Формат : AVC
    Формат/Информация : Advanced Video Codec
    Профиль формата : Main@L4.2
    Параметр CABAC формата : Да
    Параметр ReFrames формата : 3 кадра
    Идентификатор кодека : V_MPEG4/ISO/AVC
    Продолжительность : 3 м. 41 с.
    Битрейт : 24,3 Мбит/сек
    Ширина : 1920 пикселей
    Высота : 780 пикселей
    Соотношение сторон : 2,462
    Режим частоты кадров : Постоянный
    Частота кадров : 60,000 кадров/сек
    Стандарт вещания : PAL
    Цветовое пространство : YUV
    Субдискретизация насыщенности : 4:2:0
    Битовая глубина : 8 бит
    Тип развёртки : Прогрессивная
    Бит/(Пиксели*Кадры) : 0.271
    Размер потока : 642 Мбайт (95%)
    Заголовок : www.60-fps.org
    Язык : English
    Default : Да
    Forced : Нет
    Основные цвета : BT.709
    Характеристики трансфера : BT.709
    Коэффициенты матрицы : BT.709
    colour_range : Limited
    Аудио
    Идентификатор : 2
    Формат : AC-3
    Формат/Информация : Audio Coding 3
    Расширение режима : CM (complete main)
    Параметр Endianness формата : Big
    Идентификатор кодека : A_AC3
    Продолжительность : 3 м. 41 с.
    Вид битрейта : Постоянный
    Битрейт : 640 Кбит/сек
    Каналы : 2 канала
    Расположение каналов : Front: L R
    Частота : 48,0 КГц
    Битовая глубина : 16 бит
    Метод сжатия : С потерями
    Размер потока : 16,9 Мбайт (3%)
    Заголовок : AC3
    Язык : English
    Default : Да
    Forced : Нет

    Релиз подготовлен 60 - fps



Вы не можете начинать темы
Вы не можете отвечать на сообщения
Вы не можете редактировать свои сообщения
Вы не можете удалять свои сообщения
Вы не можете голосовать в опросах
Вы не можете прикреплять файлы к сообщениям
Вы не можете скачивать файлы