The Prodigy - Live World's On Fire (2011) Blu-Ray 1080p | 72 fps Philizz - Video Yearmix (2019) Full HD 1080p | 60 fps Depeche Mode - Live Spirits (2020) BDRip 1080p | 60 fps Britney Spears - Oops! I Did It Again Uncut (2009) HD 1080p | 60 fps Madonna - Rebel Heart Tour (2016) Blu-Ray Rip 1080p | 72 fps NK - ELEFANTE (2019) Full HD 1080p | 60 fps Jennifer Lopez ft. Iggy Azalea - Booty (2014) Full HD 1080p | 60 fps Snoop Dogg - Wet (2011) Full HD 1080p | 60 fps
  1. Longevity:
    6 years 2 months
    Posts:
    283
    Gender:
    Male
    David Guetta feat. Nicki Minaj & Afrojack - Hey Mama (2015) Full HD 1080p | 60 fps

    Информация о Клипе:
    Исполнители: David Guetta feat. Nicki Minaj & Afrojack
    Название: Hey Mama
    Год выпуска: 2015 г.
    Жанр: Pop
    Продолжительность: 00:03:16

    Файл:
    Формат видео: MKV
    Качество видео: Full HD 1080p | 60 fps
    Видео кодек: H.264
    Аудио кодек: AC3
    Видео: 1920x856 | 60,000 fps | 31,7 Мбит/сек
    Аудио: AC3 | 2 channels | 48 kHz | 384 Кбит/сек

    Автор Рипа:

    MediaInfo

    Видео
    Идентификатор : 1
    Формат : AVC
    Формат/Информация : Advanced Video Codec
    Профиль формата : [email protected]
    Параметр CABAC формата : Да
    Параметр ReFrames формата : 4 кадра
    Идентификатор кодека : V_MPEG4/ISO/AVC
    Продолжительность : 3 м. 16 с.
    Битрейт : 31,7 Мбит/сек
    Ширина : 1920 пикселей
    Высота : 856 пикселей
    Соотношение сторон : 2,25:1
    Режим частоты кадров : Постоянный
    Частота кадров : 60,000 кадров/сек
    Цветовое пространство : YUV
    Субдискретизация насыщенности : 4:2:0
    Битовая глубина : 8 бит
    Тип развёртки : Прогрессивная
    Бит/(Пиксели*Кадры) : 0.321
    Размер потока : 729 Мбайт (97%)
    Заголовок : David Guetta feat. Nicki Minaj & Afrojack - Hey Mama « R.G 60-FPS Rip By Kamikkadze »
    Библиотека кодирования : x264 core 146 r2538 121396c
    Настройки программы : cabac=1 / ref=4 / deblock=1:-1:1 / analyse=0x3:0x133 / me=umh / subme=7 / psy=1 / psy_rd=1.00:0.15 / mixed_ref=1 / me_range=16 / chroma_me=1 / trellis=2 / 8x8dct=1 / cqm=0 / deadzone=21,11 / fast_pskip=1 / chroma_qp_offset=-3 / threads=6 / lookahead_threads=1 / sliced_threads=0 / nr=0 / decimate=1 / interlaced=0 / bluray_compat=0 / constrained_intra=0 / bframes=4 / b_pyramid=2 / b_adapt=2 / b_bias=0 / direct=1 / weightb=0 / open_gop=0 / weightp=2 / keyint=250 / keyint_min=25 / scenecut=40 / intra_refresh=0 / rc=abr / mbtree=0 / bitrate=31670 / ratetol=1.0 / qcomp=0.60 / qpmin=0 / qpmax=69 / qpstep=4 / ip_ratio=1.40 / pb_ratio=1.30 / aq=1:1.00
    Default : Да
    Forced : Нет
    Аудио
    Идентификатор : 2
    Формат : AC-3
    Формат/Информация : Audio Coding 3
    Расширение режима : CM (complete main)
    Параметр Endianness формата : Big
    Идентификатор кодека : A_AC3
    Продолжительность : 3 м. 16 с.
    Вид битрейта : Постоянный
    Битрейт : 384 Кбит/сек
    Каналы : 2 канала
    Расположение каналов : Front: L R
    Частота : 48,0 КГц
    Метод сжатия : С потерями
    Размер потока : 8,98 Мбайт (1%)
    Default : Да
    Forced : Нет
    Просьба к переливающим на другие сайты, в оформлении указывайте пожалуйста авторство рипа - Kamikkadze
  2. Longevity:
    5 years 4 months
    Posts:
    2
    Gender:
    Unknown
    На раздаче кто то будет?
    01-Dec-2015 23:40 (after 2 months 2 days)
  3. Longevity:
    6 years 6 months
    Posts:
    2414
    Gender:
    Male
    4644На раздаче кто то будет?
    Сидов: 60 [ 33 KB/s ] Личеров: 7 [ 0 KB/s ] Подробная статистика пиров
    01-Dec-2015 23:56 (after 15 minutes)
  4. Longevity:
    2 years 9 months
    Posts:
    48
    Gender:
    Male
    Download torrent doesn't work
    25-Sep-2020 18:05 (after 4 years 9 months)
  5. Longevity:
    4 years 2 months
    Posts:
    203
    Gender:
    Male
    11909Download torrent doesn't work
    I stand on the distribution 24/7 ... Download !!!
    25-Sep-2020 18:10 (after 4 minutes)
  6. Longevity:
    2 years 9 months
    Posts:
    48
    Gender:
    Male
    Thank you for download
    25-Sep-2020 22:52 (after 4 hours)


You cannot post new topics in this forum
You cannot reply to topics in this forum
You cannot edit your posts in this forum
You cannot delete your posts in this forum
You cannot vote in polls in this forum
You cannot attach files in this forum
You cannot download files in this forum