1. Longevity:
    4 years 8 months
    Posts:
    314
    Gender:
    Male
    David Guetta - United at Home / Live in Paris (2021) | 60 fps Информация о Клипе
    Исполнитель: David Guetta
    Название: United at Home / Live in Paris
    Год выхода: 2021
    Продолжительность: 01:10:22
    Файл
    Кодек: MPEG4/ISO/AVC/ H.264
    Формат: MKV
    Качество: Web-DL 1080p
    Видео: 1920 x 1080 (16:9) at 59,940 fps 25.0 Мбит/сек
    Аудио: AC-3| 640 Кбит/сек | 44,1 KHz | 5.1 channels
    Треклист:
    · Dreams
    · Titanium
    · Permanence (Jack Back cover)
    · Play Hard
    · Love Is Gone
    · Shot Me Down
    · Make It to Heaven
    · When Love Takes Over
    · Alive
    · Get Lucky (Daft Punk cover)
    · Kill Me Slow
    · Love Don't Let me Go
    · Hypercolour (CamelPhat cover)
    · Sexy Bitch
    · Spectrum (Florence + the Machine cover)
    · Drive
    · Let's Love
    · Without You

    MI

    Общее
    Уникальный идентификатор : 177684522950252684372452651455252164350 (0x85ACCB59E48E85049D50E235AA2E6EFE)
    Полное имя : H:\Clips\Concert\David Guetta - NYE 2021 Live from Paris.1080p.60fps.mkv
    Формат : Matroska
    Версия формата : Version 2
    Размер файла : 12,6 Гбайт
    Продолжительность : 1 ч. 10 м.
    Общий поток : 25,6 Мбит/сек
    Название фильма : David Guetta - NYE 2021 Live from Paris. https://60-fps.org/
    Дата кодирования : UTC 2021-04-06 18:53:39
    Программа кодирования : mkvmerge v5.8.0 ('No Sleep / Pillow') built on Sep 2 2012 15:37:04
    Библиотека кодирования : libebml v1.2.3 + libmatroska v1.3.0
    Attachments : Poster
    Видео
    Идентификатор : 1
    Формат : AVC
    Формат/Информация : Advanced Video Codec
    Профиль формата : [email protected]
    Параметр CABAC формата : Да
    Параметр ReFrames формата : 4 кадра
    Режим смешивания : Header stripping
    Идентификатор кодека : V_MPEG4/ISO/AVC
    Продолжительность : 1 ч. 10 м.
    Битрейт : 25,0 Мбит/сек
    Ширина : 1920 пикселей
    Высота : 1080 пикселей
    Соотношение сторон : 16:9
    Режим частоты кадров : Постоянный
    Частота кадров : 59,940 (60000/1001) кадров/сек
    Цветовое пространство : YUV
    Субдискретизация насыщенности : 4:2:0
    Битовая глубина : 8 бит
    Тип развёртки : Прогрессивная
    Бит/(Пиксели*Кадры) : 0.201
    Размер потока : 12,0 Гбайт (96%)
    Библиотека кодирования : x264 core 146 r2538 121396c
    Настройки программы : cabac=1 / ref=4 / deblock=1:0:0 / analyse=0x3:0x113 / me=umh / subme=8 / psy=1 / psy_rd=1.00:0.25 / mixed_ref=1 / me_range=16 / chroma_me=1 / trellis=1 / 8x8dct=1 / cqm=0 / deadzone=6,6 / fast_pskip=1 / chroma_qp_offset=-4 / threads=12 / lookahead_threads=3 / sliced_threads=0 / nr=0 / decimate=0 / interlaced=0 / bluray_compat=0 / constrained_intra=0 / bframes=3 / b_pyramid=2 / b_adapt=2 / b_bias=0 / direct=3 / weightb=1 / open_gop=0 / weightp=2 / keyint=600 / keyint_min=60 / scenecut=40 / intra_refresh=0 / rc_lookahead=50 / rc=2pass / mbtree=1 / bitrate=25000 / ratetol=1.0 / qcomp=0.80 / qpmin=0 / qpmax=69 / qpstep=4 / cplxblur=20.0 / qblur=0.5 / vbv_maxrate=50000 / vbv_bufsize=50000 / nal_hrd=none / filler=0 / ip_ratio=1.10 / aq=1:0.50
    Язык : English
    Default : Да
    Forced : Нет
    Аудио
    Идентификатор : 2
    Формат : AC-3
    Формат/Информация : Audio Coding 3
    Расширение режима : CM (complete main)
    Параметр Endianness формата : Big
    Режим смешивания : Header stripping
    Идентификатор кодека : A_AC3
    Продолжительность : 1 ч. 10 м.
    Вид битрейта : Постоянный
    Битрейт : 640 Кбит/сек
    Каналы : 6 каналов
    Расположение каналов : Front: L C R, Side: L R, LFE
    Частота : 44,1 КГц
    Частота кадров : 28,711 кадров/сек (1536 spf)
    Битовая глубина : 16 бит
    Метод сжатия : С потерями
    Размер потока : 322 Мбайт (3%)
    Default : Да
    Forced : Нет

    Release was prepared by 60-fps.org



You cannot post new topics in this forum
You cannot reply to topics in this forum
You cannot edit your posts in this forum
You cannot delete your posts in this forum
You cannot vote in polls in this forum
You cannot attach files in this forum
You cannot download files in this forum