Властелин колец: Трилогия / The Lord of the Rings: Trilogy (2001-2003) BDRip-AVC | Extended Cut | 60 fps Битва за Землю / Captive State (2019) BDRip 1080p | 60 fps Снегоуборщик / Cold Pursuit (2019) BDRip 1080p | 60 fps Дамбо / Dumbo (2019) BDRip 1080p | 60 fps Джон Уик / John Wick (2014) BDRip 720p | 60 fps Клаустрофобы / Escape Room (2019) BDRip 1080p | 60 fps Проклятие плачущей / The Curse of La Llorona (2019) BDRip 720p | 60 fps Ван Хельсинг / Van Helsing (2004) BDRip-AVC | 60 fps
  1. Longevity:
    5 years 2 months
    Posts:
    2418
    Gender:
    Male
    Информация
    Название: Дафна и Велма
    Оригинальное название: Daphne & Velma
    Год выхода: 2018
    Жанр: ужасы, боевик, комедия, криминал
    Режиссер: Сьюзи Йюнесси
    Сценарий: Кайл Мак, Caitlin Meares
    Продюсер: Джейм Бурк, Эшли Тисдейл
    В ролях: Сара Джеффери, Сара Гилман, Ванесса Марано, Кортни Дитц, Стивен Руффин, Fray Forde, Ивэн Кастелло, Дэниэл Салиерс, Брайан Степанек, Адам Фэйзон

    Сюжет:
    Фильм рассказывает о том, как две совсем непохожие друг на друга школьницы становятся лучшими друзьями. Яркая и оптимистичная Дафна и юный гений Велма знакомятся в Интернете и понимают, что у них есть одна общая черта: они любят разгадывать тайны. Вскоре выясняется, что девочки расследуют одно и то же дело, когда ученики школы начинают таинственным образом пропадать. Дафна и Велма решают объединить свои силы и во что бы то ни стало отыскать преступника.

    Страна: США
    Продолжительность: 01:15:12

    Файл
    Кодек: H.264
    Формат: MKV
    Качество: BDRip 720p | 60 fps
    Видео: 1280 x 720 (1.778) | 59.940 fps | 10.0 Мбит/сек
    Аудио 01: AC3 | 2.0 | 48 kHz | 320 kbps | 16 bit | Любительский - Flarrow Films |
    Аудио 02: AC3 | 5.1 | 48 kHz | 448 kbps | 16 bit | english |

    MedifInfo

    Видео
    Идентификатор : 1
    Формат : AVC
    Формат/Информация : Advanced Video Codec
    Профиль формата : Main@L4.1
    Настройки формата : CABAC / 4 Ref Frames
    Параметр CABAC формата : Да
    Параметр RefFrames формата : 4 кадра
    Режим смешивания : Header stripping
    Идентификатор кодека : V_MPEG4/ISO/AVC
    Продолжительность : 1 ч. 15 м.
    Битрейт : 9999 Кбит/сек
    Ширина : 1280 пикселей
    Высота : 720 пикселей
    Соотношение сторон : 16:9
    Режим частоты кадров : Постоянный
    Частота кадров : 59,940 (60000/1001) кадров/сек
    Цветовое пространство : YUV
    Субдискретизация насыщенности : 4:2:0
    Битовая глубина : 8 бит
    Тип развёртки : Прогрессивная
    Бит/(Пиксели*Кадры) : 0.181
    Размер потока : 5,14 Гбайт (91%)
    Заголовок : www.60-fps.org
    Библиотека кодирования : x264 core 155 r2901 7d0ff22
    Настройки программы : cabac=1 / ref=3 / deblock=1:-3:-3 / analyse=0x1:0x111 / me=hex / subme=7 / psy=1 / psy_rd=1.00:0.25 / mixed_ref=1 / me_range=16 / chroma_me=1 / trellis=1 / 8x8dct=0 / cqm=0 / deadzone=6,6 / fast_pskip=1 / chroma_qp_offset=-4 / threads=12 / lookahead_threads=2 / sliced_threads=0 / nr=0 / decimate=0 / interlaced=0 / bluray_compat=0 / constrained_intra=0 / bframes=3 / b_pyramid=2 / b_adapt=1 / b_bias=0 / direct=1 / weightb=1 / open_gop=0 / weightp=2 / keyint=599 / keyint_min=59 / scenecut=40 / intra_refresh=0 / rc_lookahead=40 / rc=2pass / mbtree=1 / bitrate=9999 / ratetol=1.0 / qcomp=0.80 / qpmin=0 / qpmax=69 / qpstep=4 / cplxblur=20.0 / qblur=0.5 / vbv_maxrate=50000 / vbv_bufsize=62500 / nal_hrd=none / filler=0 / ip_ratio=1.10 / aq=1:0.50
    Default : Да
    Forced : Нет
    Аудио #1
    Идентификатор : 2
    Формат : AC-3
    Формат/Информация : Audio Coding 3
    Режим смешивания : Header stripping
    Идентификатор кодека : A_AC3
    Продолжительность : 1 ч. 15 м.
    Вид битрейта : Постоянный
    Битрейт : 320 Кбит/сек
    Каналы : 2 канала
    Расположение каналов : Front: L R
    Частота : 48,0 КГц
    Частота кадров : 31,250 кадров/сек (1536 SPF)
    Битовая глубина : 16 бит
    Метод сжатия : С потерями
    Размер потока : 172 Мбайт (3%)
    Заголовок : Любительский - Flarrow Films
    Язык : Russian
    ServiceKind/String : Complete Main
    Default : Да
    Forced : Нет
    Аудио #2
    Идентификатор : 3
    Формат : AC-3
    Формат/Информация : Audio Coding 3
    Режим смешивания : Header stripping
    Идентификатор кодека : A_AC3
    Продолжительность : 1 ч. 15 м.
    Вид битрейта : Постоянный
    Битрейт : 448 Кбит/сек
    Каналы : 6 каналов
    Расположение каналов : Front: L C R, Side: L R, LFE
    Частота : 48,0 КГц
    Частота кадров : 31,250 кадров/сек (1536 SPF)
    Битовая глубина : 16 бит
    Метод сжатия : С потерями
    Размер потока : 241 Мбайт (4%)
    Заголовок : english
    Язык : English
    ServiceKind/String : Complete Main
    Default : Нет
    Forced : Нет
    Меню
    00:00:00.000 : en:Chapter 01
    00:11:30.022 : en:Chapter 02
    00:20:24.681 : en:Chapter 03
    00:32:46.923 : en:Chapter 04
    00:42:55.364 : en:Chapter 05
    00:50:41.329 : en:Chapter 06
    00:58:14.157 : en:Chapter 07
    01:05:59.956 : en:Chapter 08
    01:11:46.885 : en:Chapter 09

    Release was prepared by 60 - fps



You cannot post new topics in this forum
You cannot reply to topics in this forum
You cannot edit your posts in this forum
You cannot delete your posts in this forum
You cannot vote in polls in this forum
You cannot attach files in this forum
You cannot download files in this forum