[Цитировать]
kamikkadze

Czech Casting - Romana (2015) HD 1080p | 60 fps

Информация:
Модель/Название: Romana
Производство: Czech
Год выпуска: 02.09.2015 г.
Продолжительность: 00:16:21

Файл:
Формат видео: MKV
Качество видео: HD 1080p | 60 fps
Видео кодек: H.264
Аудио кодек: AC3
Видео: 1920x1080 | 60,000 fps | 15,6 Мбит/сек
Аудио: AC3 | 2 channels | 48 kHz | 192 Кбит/сек

Автор Рипа:

MediaInfo

Видео
Идентификатор : 1
Формат : AVC
Формат/Информация : Advanced Video Codec
Профиль формата : High@L5
Параметр CABAC формата : Да
Параметр ReFrames формата : 6 кадров
Идентификатор кодека : V_MPEG4/ISO/AVC
Продолжительность : 16 м.
Битрейт : 15,6 Мбит/сек
Номинальный битрейт : 17,7 Мбит/сек
Ширина : 1920 пикселей
Высота : 1080 пикселей
Соотношение сторон : 16:9
Режим частоты кадров : Постоянный
Частота кадров : 60,000 кадров/сек
Цветовое пространство : YUV
Субдискретизация насыщенности : 4:2:0
Битовая глубина : 8 бит
Тип развёртки : Прогрессивная
Бит/(Пиксели*Кадры) : 0.126
Размер потока : 1,79 Гбайт (97%)
Заголовок : Czech.Casting.Romana « R.G 60-FPS Rip By Kamikkadze »
Библиотека кодирования : x264 core 146 r2538M 121396c
Настройки программы : cabac=1 / ref=6 / deblock=1:-3:-3 / analyse=0x3:0x113 / me=umh / subme=10 / psy=1 / psy_rd=1,05:0,10 / mixed_ref=1 / me_range=48 / chroma_me=1 / trellis=2 / 8x8dct=1 / cqm=0 / deadzone=21,11 / fast_pskip=0 / chroma_qp_offset=-3 / threads=6 / lookahead_threads=1 / sliced_threads=0 / nr=0 / decimate=1 / interlaced=0 / bluray_compat=0 / constrained_intra=0 / bframes=6 / b_pyramid=2 / b_adapt=2 / b_bias=0 / direct=3 / weightb=1 / open_gop=0 / weightp=2 / keyint=300 / keyint_min=30 / scenecut=40 / intra_refresh=0 / rc_lookahead=250 / rc=cbr / mbtree=1 / bitrate=17743 / ratetol=1,0 / qcomp=0,70 / qpmin=3 / qpmax=69 / qpstep=4 / vbv_maxrate=17743 / vbv_bufsize=17743 / nal_hrd=none / filler=0 / ip_ratio=1,40 / aq=2:1,00
Default : Да
Forced : Нет
DURATION : 00:16:21.250000000
NUMBER_OF_FRAMES : 58875
NUMBER_OF_BYTES : 1957882965
_STATISTICS_WRITING_APP : mkvmerge v8.3.0 ('Over the Horizon') 64bit
_STATISTICS_WRITING_DATE_UTC : 2015-09-18 06:20:34
_STATISTICS_TAGS : BPS DURATION NUMBER_OF_FRAMES NUMBER_OF_BYTES
Аудио
Идентификатор : 2
Формат : AC-3
Формат/Информация : Audio Coding 3
Расширение режима : CM (complete main)
Параметр Endianness формата : Big
Идентификатор кодека : A_AC3
Продолжительность : 16 м.
Вид битрейта : Постоянный
Битрейт : 192 Кбит/сек
Каналы : 2 канала
Расположение каналов : Front: L R
Частота : 48,0 КГц
Метод сжатия : С потерями
Задержка видео : 27 мс.
Размер потока : 22,5 Мбайт (1%)
Default : Да
Forced : Нет
DURATION : 00:16:21.024000000
NUMBER_OF_FRAMES : 30657
NUMBER_OF_BYTES : 23544576
_STATISTICS_WRITING_APP : mkvmerge v8.3.0 ('Over the Horizon') 64bit
_STATISTICS_WRITING_DATE_UTC : 2015-09-18 06:20:34
_STATISTICS_TAGS : BPS DURATION NUMBER_OF_FRAMES NUMBER_OF_BYTES

Скринлист

Просьба к переливающим на другие сайты, в оформлении указывайте пожалуйста авторство рипа - Kamikkadze

Релиз подготовлен 60 - fps

 
Показать сообщения:    

Текущее время: 08-Дек 19:03

Часовой пояс: UTC + 3


Вы не можете начинать темы
Вы не можете отвечать на сообщения
Вы не можете редактировать свои сообщения
Вы не можете удалять свои сообщения
Вы не можете голосовать в опросах
Вы не можете прикреплять файлы к сообщениям
Вы не можете скачивать файлы